<?xml version="1.0" standalone="no"?>
<!DOCTYPE svg PUBLIC "-//W3C//DTD SVG 1.1//EN" "http://www.w3.org/Graphics/SVG/1.1/DTD/svg11.dtd" >
<svg xmlns="http://www.w3.org/2000/svg">
<metadata>
This is a custom SVG webfont generated by Font Squirrel.
Copyright   : Copyright c 1987 1991 1994 Adobe Systems Incorporated  All Rights ReservedUnivers is a trademark of LinotypeHell AG andor its subsidiaries
</metadata>
<defs>
<font id="webfontiy6zRztM" horiz-adv-x="1024" >
<font-face units-per-em="2048" ascent="1638" descent="-410" />
<missing-glyph horiz-adv-x="454" />
<glyph unicode=" "  horiz-adv-x="454" />
<glyph unicode="&#x09;" horiz-adv-x="454" />
<glyph unicode="&#xa0;" horiz-adv-x="454" />
<glyph unicode="!" horiz-adv-x="681" d="M412 342l41 1137h-224l37 -1137h146zM438 213h-192v-213h192v213z" />
<glyph unicode="&#x22;" horiz-adv-x="512" d="M72 1055h123v424h-123v-424zM317 1055h123v424h-123v-424z" />
<glyph unicode="#" horiz-adv-x="909" d="M47 0h105l151 479h164l-148 -479h105l147 479h211l35 115h-211l72 233h209l35 115h-209l147 479h-106l-146 -479h-168l150 479h-105l-149 -479h-205l-35 -115h207l-72 -233h-202l-35 -115h203zM338 594l70 233h165l-71 -233h-164z" />
<glyph unicode="$" horiz-adv-x="909" d="M498 604q102 -55 156.5 -110.5t54.5 -137.5q0 -94 -58.5 -152.5t-152.5 -70.5v471zM410 852q-84 43 -128 96t-44 131q0 82 47 136.5t125 64.5v-428zM498 -31q70 0 141.5 22.5t130.5 71t95 124t36 175.5q0 90 -30.5 158t-83 116t-109.5 81t-148 74q-23 10 -32 16v473 q106 -6 150 -69.5t44 -184.5h207q0 203 -100.5 310.5t-300.5 107.5v121h-88v-121q-156 0 -260.5 -108.5t-104.5 -276.5q0 -82 30.5 -144.5t82 -109.5t109 -81t143.5 -75v-516q-106 8 -156.5 92t-50.5 207h-193v-8q-2 -23 -2 -37q0 -59 14.5 -125.5t55.5 -134.5t123 -113 t209 -45v-121h88v121z" />
<glyph unicode="%" horiz-adv-x="1593" d="M406 1509q-88 0 -142.5 -32.5t-80 -88t-33 -121t-7.5 -153.5t7.5 -153.5t33 -119t79.5 -84t143 -30.5q88 0 142 30.5t79.5 85t33 119t7.5 152.5t-7.5 153.5t-33 121t-79.5 88t-142 32.5zM406 1395q82 0 100 -57.5t18 -219.5t-18.5 -219t-99.5 -57q-82 0 -100.5 57 t-18.5 219t18.5 219.5t100.5 57.5zM1186 752q-88 0 -142.5 -33t-80 -88.5t-32.5 -121t-7 -153.5t7 -153.5t32.5 -118.5t80 -84t142.5 -31t142 31t80 85t33 118.5t7 152.5t-7 153.5t-33 121t-80 88.5t-142 33zM1186 637q82 0 100.5 -57.5t18.5 -219.5t-18.5 -219t-100.5 -57 t-100.5 57.5t-18.5 218.5q0 162 18.5 219.5t100.5 57.5zM1210 1552h-133l-698 -1626h129z" />
<glyph unicode="&#x26;" horiz-adv-x="1366" d="M907 274q-55 -80 -126.5 -113.5t-174.5 -33.5q-133 0 -218 76t-85 194q0 117 58.5 185.5t181.5 152.5zM598 934q-14 20 -53 65q-53 61 -81 105.5t-28 95.5q0 74 46 120t118 46q76 0 119 -44t43 -122q0 -76 -45 -139.5t-119 -126.5zM1126 0h213l-237 317q45 80 67.5 204 t22.5 349h-168q0 -190 -4 -272t-25 -147l-288 366q109 92 178 190.5t69 202.5q0 150 -97 224.5t-249 74.5q-72 0 -137 -16t-116.5 -51t-81 -91.5t-29.5 -133.5q0 -92 55 -184.5t139 -188.5q-86 -53 -140 -92t-97 -89.5t-66.5 -116t-23.5 -153.5q0 -205 137 -314.5 t348 -109.5q135 0 232.5 41t179.5 142z" />
<glyph unicode="'" horiz-adv-x="512" d="M195 1055h122v424h-122v-424z" />
<glyph unicode="(" horiz-adv-x="569" d="M424 -242q-61 264 -95 470t-34 407q0 213 36 434t101 479h-125q-16 -55 -43 -137q-82 -250 -122 -420t-40 -348q0 -172 40 -338t120 -409l43 -138h119z" />
<glyph unicode=")" horiz-adv-x="569" d="M264 -242l43 138q80 244 120 409.5t40 337.5q0 178 -40 348t-122 420l-43 137h-125q66 -258 101.5 -479t35.5 -434q0 -201 -33.5 -406.5t-95.5 -470.5h119z" />
<glyph unicode="*" horiz-adv-x="909" d="M844 1069v135l-320 -24l185 260l-121 69l-133 -290l-133 290l-121 -69l184 -260l-319 24v-135l319 31l-186 -266l118 -66l138 295l137 -295l119 66l-187 266z" />
<glyph unicode="+" d="M449 582h-361v-127h361v-455h126v455h361v127h-361v452h-126v-452z" />
<glyph unicode="," horiz-adv-x="454" d="M70 -260h131l186 473h-211z" />
<glyph unicode="-" horiz-adv-x="681" d="M115 479h450v158h-450v-158z" />
<glyph unicode="." horiz-adv-x="454" d="M324 213h-193v-213h193v213z" />
<glyph unicode="/" horiz-adv-x="569" d="M569 1479h-137l-481 -1676h137z" />
<glyph unicode="0" horiz-adv-x="909" d="M455 1444q-135 0 -215 -55.5t-116 -154.5t-44 -218t-8 -311q0 -184 8 -301t44 -217.5t114.5 -159t216.5 -58.5q137 0 216 58.5t114.5 159t44 217t8.5 301.5q0 193 -8.5 312.5t-44 217.5t-115.5 153.5t-215 55.5zM455 1286q70 0 110.5 -41t58 -118.5t21.5 -177t4 -281.5 q0 -135 -5 -228.5t-24.5 -163t-59.5 -109.5t-105 -40q-66 0 -106 39t-59.5 110.5t-24.5 163.5t-5 228q0 182 4 281.5t22.5 177t58.5 118.5t110 41z" />
<glyph unicode="1" horiz-adv-x="909" d="M592 1421h-162l-59 -47q-33 -27 -67 -50l-65 -45q-32 -22 -49 -28v-180l213 143v-1214h189v1421z" />
<glyph unicode="2" horiz-adv-x="909" d="M852 0v164h-563l217 276l150 192q50 67 87 135.5t54.5 141t17.5 162.5q0 190 -93 281.5t-286 91.5q-168 0 -257 -93.5t-89 -252.5q0 -10 2 -21v-22h193q0 106 35.5 168.5t130.5 62.5q88 0 132 -50t44 -138q0 -74 -16.5 -135.5t-52.5 -128t-90 -145.5l-165 -230l-215 -295 v-164h764z" />
<glyph unicode="3" horiz-adv-x="909" d="M346 662q172 0 238.5 -56.5t66.5 -222.5q0 -123 -49 -189.5t-168 -66.5q-61 0 -100 20.5t-58.5 56.5t-26.5 81t-9 106h-189q0 -80 11.5 -148.5t47 -131t111.5 -102.5t197 -40q207 0 314.5 102.5t107.5 307.5q0 166 -66.5 253t-228.5 109v4q4 2 8 3q49 12 90 27.5t84 50 t70.5 97t27.5 152.5q0 182 -100 275.5t-285 93.5q-184 0 -276 -91t-92 -259l2 -19v-20h188q0 109 38 170t140 61q100 0 148.5 -60.5t48.5 -162.5q0 -121 -66.5 -179.5t-181.5 -58.5q-6 0 -20 2h-23v-165z" />
<glyph unicode="4" horiz-adv-x="909" d="M215 510l307 739h4v-739h-311zM526 346v-346h176v346h168v164h-168v911h-249l-402 -911v-164h475z" />
<glyph unicode="5" horiz-adv-x="909" d="M121 1421v-798h170q12 76 56 120.5t118 44.5q63 0 101 -27.5t55.5 -75.5t21.5 -109.5t4 -155.5q0 -63 -5 -115.5t-24.5 -97.5t-58.5 -73t-102 -28q-88 0 -128 61.5t-40 154.5h-189q0 -78 14.5 -140.5t52.5 -110.5t107.5 -75t176.5 -27q127 0 205.5 43t116.5 115t50.5 155 t12.5 185q0 246 -73 362.5t-224 116.5q-72 0 -137.5 -30.5t-88.5 -75.5l-4 4v413h475v164h-663z" />
<glyph unicode="6" horiz-adv-x="909" d="M266 461q0 55 7.5 107.5t26.5 97.5t57 73.5t98 28.5q57 0 96 -24.5t59.5 -66.5t28.5 -91t8 -105q0 -78 -7 -139t-26.5 -110.5t-55.5 -77t-91 -27.5q-63 0 -105.5 30.5t-61.5 79t-26.5 105t-7.5 119.5zM457 -31q100 0 172.5 38t119 104.5t67 151.5t20.5 186q0 133 -27 227 t-72 148.5t-106.5 78t-132.5 23.5q-74 0 -135.5 -36t-96.5 -97h-4q0 291 40 402.5t153 111.5q78 0 122 -63.5t44 -145.5h188q0 164 -96.5 255t-255.5 91q-135 0 -215 -55.5t-116 -154.5t-44 -218t-8 -311q0 -184 8 -301t44 -217.5t115 -159t216 -58.5z" />
<glyph unicode="7" horiz-adv-x="909" d="M61 1257h541l-397 -1257h213l379 1257v164h-736v-164z" />
<glyph unicode="8" horiz-adv-x="909" d="M455 127q-98 0 -144.5 74.5t-46.5 179.5q0 59 6 107.5t24.5 90.5t58.5 67.5t102 25.5q63 0 102 -25.5t57.5 -68.5t24.5 -90.5t6 -106.5q0 -104 -46 -179t-144 -75zM571 754q121 25 184.5 116t63.5 217q0 166 -98 261.5t-266 95.5t-266.5 -95.5t-98.5 -261.5 q0 -127 63.5 -218t184.5 -115v-2q-76 -8 -127 -39t-81 -81t-42 -111.5t-12 -137.5q0 -195 97 -304.5t282 -109.5q184 0 281.5 109.5t97.5 304.5q0 76 -12.5 137.5t-42 111.5t-81 80.5t-127.5 39.5v2zM455 836q-49 0 -84 23.5t-55.5 62.5t-28.5 83t-8 89q0 88 45 150.5 t131 62.5t131 -62.5t45 -150.5q0 -45 -8.5 -89t-29 -83t-54 -62.5t-84.5 -23.5z" />
<glyph unicode="9" horiz-adv-x="909" d="M453 1307q57 0 95 -27t58.5 -70t28.5 -92t8 -106q0 -61 -7 -111.5t-27.5 -92.5t-58.5 -66.5t-97 -24.5q-57 0 -96.5 24.5t-60 66.5t-27.5 92t-7 112q0 57 8.5 106t28.5 92t58.5 70t95.5 27zM453 1444q-74 0 -141.5 -24.5t-121 -76t-85 -136.5t-31.5 -199 q0 -137 32.5 -227.5t83 -138.5t104.5 -65.5t105 -17.5q86 0 148.5 32t95.5 101h4q0 -311 -33.5 -438t-160.5 -127q-84 0 -123 61.5t-39 151.5h-189q0 -170 95.5 -270.5t255.5 -100.5q137 0 216 58.5t114.5 159t44 217t8.5 301.5q0 193 -8.5 312.5t-44 217.5t-115.5 153.5 t-215 55.5z" />
<glyph unicode=":" horiz-adv-x="454" d="M324 1034h-193v-213h193v213zM324 213h-193v-213h193v213z" />
<glyph unicode=";" horiz-adv-x="454" d="M70 -260h131l186 473h-211zM324 1034h-193v-213h193v213z" />
<glyph unicode="&#x3c;" d="M246 518l694 387v150l-854 -471v-131l854 -480v150z" />
<glyph unicode="=" d="M936 786h-848v-127h848v127zM936 383h-848v-127h848v127z" />
<glyph unicode="&#x3e;" d="M84 123v-150l854 480v131l-854 471v-150l694 -387z" />
<glyph unicode="?" horiz-adv-x="909" d="M532 375v190q0 43 24 82t75 101q82 104 128 195t46 224q0 158 -89 250t-245 92q-188 0 -272 -106.5t-84 -315.5h192q0 59 5 107.5t20.5 88.5t46.5 64.5t80 24.5q76 0 114.5 -61.5t38.5 -139.5q0 -96 -36.5 -170.5t-106.5 -169.5q-53 -72 -78.5 -120.5t-25.5 -102.5v-233 h167zM545 213h-193v-213h193v213z" />
<glyph unicode="@" horiz-adv-x="1613" d="M883 1098q63 0 104 -44t41 -106q0 -41 -21.5 -130t-63.5 -183t-107.5 -160.5t-149.5 -66.5q-74 0 -117 58t-43 138q0 72 26 158t74 162.5t113.5 125t143.5 48.5zM1114 1083q-31 66 -95.5 102t-137.5 36q-111 0 -205 -56.5t-164 -150.5t-106.5 -205t-36.5 -215 q0 -129 78.5 -219t207.5 -90q66 0 132.5 27.5t113.5 76.5q18 -53 68.5 -80.5t109.5 -27.5q66 0 148 31.5t159.5 101t128 187.5t50.5 280q0 59 -23.5 154t-98.5 206t-228.5 189.5t-393.5 78.5q-156 0 -297 -59t-248.5 -164.5t-167 -246t-59.5 -298.5t59.5 -299t166 -247.5 t248 -166t298.5 -59.5q229 0 417.5 103.5t287.5 283.5h-123q-92 -133 -242.5 -202.5t-339.5 -69.5q-135 0 -255 50t-210 140.5t-141 211t-51 253.5t51 253t141 211t210 141.5t255 50.5q197 0 326 -57.5t194.5 -143.5t87 -168t21.5 -145q0 -115 -34 -207t-87 -153.5 t-112.5 -93.5t-108.5 -32q-61 0 -61 54q0 18 8 46.5t18 59.5l211 625h-141z" />
<glyph unicode="A" horiz-adv-x="1251" d="M31 0h190l111 352h571l107 -352h211l-482 1479h-239zM852 516h-473l231 789h4z" />
<glyph unicode="B" horiz-adv-x="1251" d="M373 692h200q80 0 139.5 -11t104.5 -41t69.5 -84t24.5 -140q0 -43 -15 -87t-48 -82t-85 -60.5t-124 -22.5h-266v528zM373 1315h266q113 0 170 -62.5t57 -160.5q0 -111 -55 -172.5t-164 -63.5h-274v459zM659 0q80 0 153 14.5t139.5 56.5t109.5 127t43 218q0 156 -74 246 t-229 108v10q137 31 195.5 118t58.5 232q0 35 -13.5 89.5t-46.5 107.5q-49 74 -119.5 113t-209.5 39h-482v-1479h475z" />
<glyph unicode="C" horiz-adv-x="1138" d="M1012 1071q0 6 2 31v26q0 190 -94.5 285.5t-294.5 95.5q-115 0 -201 -25.5t-147.5 -87t-94 -166t-32.5 -257.5v-418q0 -203 44 -324.5t113.5 -177t142 -70t166.5 -14.5q61 0 124 10.5t131.5 53.5t115.5 142t47 261h-194q0 -100 -27 -163.5t-64.5 -95.5t-74.5 -41t-68 -9 q-61 0 -107 14.5t-81 55.5t-55.5 122.5t-20.5 212.5v396q0 145 12.5 207.5t26.5 93.5q2 2 4 6q2 10 17.5 28.5t37.5 36.5q68 49 168 50q39 0 89.5 -16.5t76.5 -47.5q43 -51 43 -215h195z" />
<glyph unicode="D" horiz-adv-x="1251" d="M358 1315h248q150 0 219.5 -94.5t69.5 -315.5v-299q0 -129 -19.5 -215t-61.5 -135t-108.5 -70.5t-168.5 -21.5h-179v1151zM170 0h340q190 0 308 47t179 143q47 74 68.5 218.5t21.5 377.5q0 29 -2 85.5t-9 129t-20.5 141t-33.5 111.5q-53 117 -152.5 171.5t-244.5 54.5 h-455v-1479z" />
<glyph unicode="E" d="M940 0v164h-586v512h533v164h-533v475h574v164h-762v-1479h774z" />
<glyph unicode="F" horiz-adv-x="909" d="M340 0v676h516v164h-516v475h545v164h-733v-1479h188z" />
<glyph unicode="G" horiz-adv-x="1251" d="M1071 1083q0 231 -110.5 328.5t-348.5 97.5q-229 0 -347 -128t-118 -355v-485q0 -303 113 -437.5t352 -134.5q135 0 245 29t208 82v719h-461v-164h273v-442q-35 -27 -103.5 -46.5t-161.5 -19.5q-141 0 -206.5 87t-65.5 318v500q0 109 31.5 175.5t77 97t87.5 39t76 8.5 q139 0 200.5 -66.5t61.5 -202.5h197z" />
<glyph unicode="H" horiz-adv-x="1251" d="M367 0v676h518v-676h188v1479h-188v-639h-518v639h-189v-1479h189z" />
<glyph unicode="I" horiz-adv-x="569" d="M379 1479h-189v-1479h189v1479z" />
<glyph unicode="J" d="M61 459q0 -121 10.5 -200t49.5 -144q27 -41 65.5 -70t82.5 -45t86 -23.5t77 -7.5q141 0 227 46t124 114t47.5 125t9.5 113v1112h-189v-1000q0 -84 -6 -141t-26.5 -105.5t-64.5 -77t-116 -28.5q-61 0 -98 25.5t-54.5 68.5t-21.5 86t-6 113v39h-197z" />
<glyph unicode="K" horiz-adv-x="1138" d="M354 0v772h6l519 -772h241l-567 811l537 668h-213l-517 -650h-6v650h-188v-1479h188z" />
<glyph unicode="L" horiz-adv-x="909" d="M897 0v164h-543v1315h-188v-1479h731z" />
<glyph unicode="M" horiz-adv-x="1705" d="M344 1315h4l406 -1315h178l414 1315h4v-1315h188v1479h-311l-377 -1241h-4l-373 1241h-305v-1479h176v1315z" />
<glyph unicode="N" horiz-adv-x="1366" d="M1022 1479v-1266h-4l-576 1266h-266v-1479h168v1282h4l584 -1282h258v1479h-168z" />
<glyph unicode="O" horiz-adv-x="1251" d="M625 -31q240 0 352.5 134.5t112.5 437.5v485q0 227 -118 355t-347 128t-347 -128t-118 -355v-485q0 -303 112.5 -437.5t352.5 -134.5zM625 127q-141 0 -207 87t-66 318v500q0 109 32 175.5t77 97t87 39t77 8.5t76.5 -8.5t87 -39t77 -97t31.5 -175.5v-500 q0 -231 -65.5 -318t-206.5 -87z" />
<glyph unicode="P" horiz-adv-x="1138" d="M379 1315h260q23 0 55.5 -8.5t68.5 -34t60.5 -76.5t24.5 -129q0 -82 -27.5 -133t-69.5 -77t-84 -34t-81 -8h-207v500zM379 0v651h248q66 0 135 17.5t132.5 62.5t104.5 126t41 200q0 125 -34.5 209t-93 130t-130 64.5t-153.5 18.5h-439v-1479h189z" />
<glyph unicode="Q" horiz-adv-x="1251" d="M614 152q-158 0 -216 92t-58 288v500q0 109 31.5 175.5t77 97t87.5 39t76 8.5q35 0 77 -8.5t87 -39t77 -97t32 -175.5v-500q0 -199 -56.5 -289.5t-214.5 -90.5zM147 541q0 -186 42 -299t110 -164t141.5 -64.5t173.5 -13.5h615v164h-148q-18 0 -50 -8.5t-64 -20.5l-15 -4 l-4 4q31 12 54.5 60.5t40 112t25.5 127t9 106.5v485q0 227 -117.5 355t-347.5 128q-229 0 -347 -128t-118 -355v-485z" />
<glyph unicode="R" horiz-adv-x="1138" d="M350 1315h285q100 0 149.5 -66.5t49.5 -158.5q0 -104 -52.5 -175t-148.5 -71h-283v471zM571 680q35 0 68 -5t66.5 -23.5t59.5 -57.5t30 -102q4 -59 10 -168q4 -127 13 -201t34 -123h197q-10 33 -19.5 87t-15.5 113.5l-10.5 106.5t-6.5 80q-4 111 -18 181.5t-42 110.5 t-70 59.5t-111 29.5v4q129 23 199.5 114t70.5 224q0 74 -19.5 139.5t-61.5 117.5t-110.5 82t-162.5 30h-510v-1479h188v680h221z" />
<glyph unicode="S" horiz-adv-x="1138" d="M125 440q0 -92 13.5 -168.5t57.5 -146.5t132 -113t229 -43q96 0 178 21.5t145.5 70t99.5 128t36 192.5q0 90 -32 160.5t-84 121t-109.5 85t-151.5 83.5q-145 76 -199 123q-43 37 -65.5 79t-22.5 95q0 111 66.5 164.5t161.5 53.5q125 0 176 -68t51 -201h197 q0 227 -103.5 329.5t-306.5 102.5q-193 0 -313.5 -105.5t-120.5 -295.5q0 -84 30.5 -150.5t83 -115.5t109.5 -84t145 -80q70 -37 119 -65.5t90 -63.5t63.5 -79t22.5 -97q0 -125 -71.5 -182.5t-192.5 -57.5q-104 0 -170 57q-37 33 -57.5 84.5t-20.5 122.5v43h-186z" />
<glyph unicode="T" d="M29 1479v-164h389v-1315h188v1315h389v164h-966z" />
<glyph unicode="U" horiz-adv-x="1251" d="M160 541q0 -303 112.5 -437.5t352.5 -134.5t352.5 134.5t112.5 437.5v938h-189v-947q0 -231 -66.5 -318t-209.5 -87q-141 0 -209 87t-68 318v947h-188v-938z" />
<glyph unicode="V" horiz-adv-x="1138" d="M1112 1479h-192l-347 -1301h-4l-338 1301h-204l428 -1479h225z" />
<glyph unicode="W" horiz-adv-x="1820" d="M373 0h229l299 1282h4l281 -1282h229l391 1479h-196l-301 -1282h-4l-269 1282h-243l-297 -1282h-4l-279 1282h-201z" />
<glyph unicode="X" horiz-adv-x="1138" d="M672 766l397 713h-207l-307 -574l-303 574h-217l403 -713l-426 -766h205l326 633l344 -633h227z" />
<glyph unicode="Y" d="M516 764l-289 715h-211l398 -916v-563h188v563l404 916h-191z" />
<glyph unicode="Z" d="M956 1479h-882v-164h692v-4l-717 -1098v-213h924v164h-750l733 1126v189z" />
<glyph unicode="[" horiz-adv-x="569" d="M489 -242v115h-178v1561h172v114h-340v-1790h346z" />
<glyph unicode="\" horiz-adv-x="569" d="M432 -31h137l-434 1510h-137z" />
<glyph unicode="]" horiz-adv-x="569" d="M426 -242v1790h-340v-114h172v-1561h-178v-115h346z" />
<glyph unicode="^" d="M444 1421l-309 -854h139l226 652h4l229 -652h154l-320 854h-123z" />
<glyph unicode="_" d="M1024 -256v102h-1024v-102h1024z" />
<glyph unicode="`" horiz-adv-x="569" d="M41 1479l268 -289h137l-182 289h-223z" />
<glyph unicode="a" d="M676 514v-29q2 -14 2 -28q0 -100 -19.5 -168t-50 -106t-67.5 -52t-78 -14q-80 0 -121 54t-41 136q0 74 29.5 117t78 61.5t101.5 23.5t133 5h33zM680 0h184q-20 133 -20 246v497q0 70 -15.5 125.5t-53.5 97.5t-104.5 65.5t-162.5 23.5q-170 0 -257 -72t-93 -240h182v13 l-2 12q0 72 43 116t121 44q55 0 91 -18.5t53.5 -50.5t24.5 -70.5t7 -90.5l-2 -28v-29h-33q-33 2 -35 2q-96 0 -177 -12.5t-148.5 -46t-108.5 -98t-41 -167.5q0 -162 63.5 -250.5t219.5 -88.5q96 0 158.5 40.5t101.5 129.5h4v-150z" />
<glyph unicode="b" d="M330 559q0 70 5 126t24.5 110.5t59.5 88.5t105 34q127 0 166 -96.5t39 -323.5q0 -82 -4 -140.5t-23.5 -115t-64.5 -91t-119 -34.5q-63 0 -101 33.5t-57.5 94t-24.5 134.5t-5 180zM330 123h4q86 -143 237 -143q72 0 129.5 19t103.5 73.5t73.5 160t27.5 267.5q0 125 -8 214 t-41 168t-103.5 126t-189.5 47q-139 0 -227 -125h-6v549h-168v-1479h168v123z" />
<glyph unicode="c" d="M862 702q0 176 -82 264.5t-235 88.5q-129 0 -209 -42t-120 -117t-52 -169t-12 -225q0 -164 29.5 -269.5t81.5 -160t121 -73.5t161 -19q49 0 103 17t105.5 58t84 114t32.5 175h-176q0 -66 -16 -111t-41 -70.5t-49.5 -35.5t-42.5 -10q-127 0 -172 99t-45 357q0 102 15 171 t44 106t67 52.5t91 15.5q57 0 100 -49.5t43 -166.5h174z" />
<glyph unicode="d" d="M694 559q0 -106 -4 -175t-21.5 -130t-56.5 -99t-106 -38q-74 0 -118 34.5t-64.5 91t-24.5 115t-4 140.5q0 227 39 323.5t166 96.5q66 0 105.5 -34t59 -88.5t24.5 -110.5t5 -126zM694 930h-6q-88 125 -227 125q-119 0 -189.5 -47t-103.5 -126t-41 -168t-8 -214 q0 -162 27.5 -267.5t73.5 -160t103.5 -73.5t129.5 -19q152 0 237 143h4v-123h168v1479h-168v-549z" />
<glyph unicode="e" d="M311 590q0 102 15.5 169.5t42 104.5t61.5 50.5t78 13.5q51 0 88 -11.5t63.5 -46t41 -102.5t14.5 -178h-404zM893 463v88q0 270 -78 387t-291 117q-129 0 -208.5 -42t-119.5 -117t-52.5 -169t-12.5 -225q0 -164 29.5 -269.5t82 -160t121 -73.5t160.5 -19q168 0 263.5 82.5 t97.5 250.5h-185q-4 -84 -51 -140t-129 -56q-106 0 -157.5 71.5t-51.5 274.5h582z" />
<glyph unicode="f" horiz-adv-x="569" d="M18 1034v-127h160v-907h168v907h209v127h-209v176q0 70 36 110t136 40l19 -2h18v121q-37 6 -80 6q-63 0 -114.5 -10.5t-92.5 -38t-65.5 -76.5t-24.5 -125v-201h-160z" />
<glyph unicode="g" d="M698 522q0 -82 -5 -143.5t-23.5 -116.5t-59.5 -89t-108 -34q-49 0 -86 18.5t-62 61.5q-53 94 -53 330q0 70 5 127t23.5 112.5t59.5 91t109 35.5q70 0 110.5 -31.5t60 -86t24.5 -119t5 -156.5zM694 907h-4q-70 147 -241 148q-45 0 -96.5 -15.5t-103.5 -65.5t-88 -154.5 t-36 -270.5q0 -127 14.5 -223.5t50 -170t102 -114.5t169.5 -41q70 0 133 35t94 94h6v-215q0 -82 -47 -130t-133 -48q-70 0 -113 39t-45 110h-188q0 -139 89 -207.5t224 -68.5q188 0 284.5 62.5t96.5 224.5v1138h-168v-127z" />
<glyph unicode="h" d="M877 0v733q0 170 -69 246t-206 76q-104 0 -167.5 -33t-112.5 -121h-9v578h-168v-1479h168v608q0 145 47.5 227.5t163.5 82.5q100 0 142.5 -56.5t42.5 -161.5v-700h168z" />
<glyph unicode="i" horiz-adv-x="454" d="M311 1034h-168v-1034h168v1034zM133 1298h189v181h-189v-181z" />
<glyph unicode="j" horiz-adv-x="454" d="M143 -152q0 -59 -30.5 -77.5t-94.5 -18.5v-143q174 0 233.5 57.5t59.5 190.5v1177h-168v-1186zM133 1298h189v181h-189v-181z" />
<glyph unicode="k" horiz-adv-x="909" d="M315 580h4l369 -580h213l-405 590l344 444h-205l-316 -446h-4v891h-168v-1479h168v580z" />
<glyph unicode="l" horiz-adv-x="454" d="M311 1479h-168v-1479h168v1479z" />
<glyph unicode="m" horiz-adv-x="1478" d="M823 0v696q0 45 12.5 100.5t45.5 82.5t55 33t72 6q92 0 127.5 -54.5t35.5 -146.5v-717h168v786q0 86 -26.5 141.5t-69.5 82t-89 36t-97 9.5q-82 0 -144.5 -29t-101.5 -104q-27 66 -95.5 99.5t-146.5 33.5q-94 0 -158.5 -35t-99.5 -115h-4v129h-178q10 -119 10 -215v-819 h168v696q0 35 9.5 76t29.5 76q18 29 62.5 49.5t83.5 20.5q92 0 127.5 -54.5t35.5 -146.5v-717h168z" />
<glyph unicode="n" d="M877 0v717q0 168 -60.5 253t-216.5 85q-102 0 -164.5 -34t-111.5 -120h-9v133h-178q10 -119 10 -215v-819h168v612q0 59 8.5 112.5t30 96.5t64.5 70t108 27q100 0 141.5 -54.5t41.5 -146.5v-717h168z" />
<glyph unicode="o" d="M512 117q-127 0 -172 99t-45 357q0 102 15.5 171t44 106t66.5 52.5t91 15.5t92 -15.5t66.5 -52.5t43 -105.5t15.5 -171.5q0 -258 -45 -357t-172 -99zM512 -20q92 0 160.5 19t121 73.5t82 160t29.5 269.5q0 131 -12 226t-52 169t-120 116t-209 42t-209 -42t-120 -117 t-52 -169t-12 -225q0 -164 29.5 -269.5t82 -160t121 -73.5t160.5 -19z" />
<glyph unicode="p" d="M524 117q-66 0 -105.5 33.5t-59 87t-24.5 109.5t-5 126q0 106 5 181t24.5 134.5t57.5 94.5t101 35q74 0 119 -36t64.5 -92.5t23.5 -115t4 -139.5q0 -227 -39 -322.5t-166 -95.5zM330 1034h-168v-1425h168v495h6q88 -125 227 -124q119 0 189.5 47t103.5 125.5t41 168 t8 214.5q0 162 -27.5 267t-73.5 159.5t-103.5 74t-129.5 19.5q-152 0 -237 -144h-4v123z" />
<glyph unicode="q" d="M500 117q-127 0 -166 95t-39 323q0 82 4 140t23.5 113.5t64.5 90t119 34.5q63 0 101 -33.5t57.5 -94t24.5 -134t5 -178.5q0 -70 -5 -125t-24.5 -109.5t-59 -88t-105.5 -33.5zM694 911h-4q-86 143 -237 144q-72 0 -129.5 -19.5t-103.5 -74t-73.5 -160t-27.5 -266.5 q0 -125 8 -214.5t41 -168t103.5 -125.5t189.5 -47q139 0 227 124h6v-495h168v1425h-168v-123z" />
<glyph unicode="r" horiz-adv-x="681" d="M322 1034h-168v-1034h168v610q0 57 11 106.5t36.5 89.5t71.5 62.5t114 22.5q16 0 45 -4q10 -2 23 -2q12 -2 22 -4v174q-135 0 -202.5 -33t-116.5 -143h-4v155z" />
<glyph unicode="s" horiz-adv-x="909" d="M813 295q0 63 -26.5 113.5t-69.5 86t-90 60.5t-125 61q-104 47 -154.5 83t-50.5 89q0 66 45 103t115 37q162 0 161 -166h187q0 150 -92 221.5t-236 71.5q-102 0 -173 -27t-110.5 -70t-56 -91t-16.5 -95q0 -61 26.5 -110.5t69.5 -86t89 -61.5t122 -61q109 -51 159 -88 t50 -91q0 -76 -49 -116.5t-129 -40.5q-59 0 -95 20.5t-52.5 52t-20.5 62.5t-4 63h-191q0 -174 93.5 -254.5t263.5 -80.5q164 0 262 76.5t98 238.5z" />
<glyph unicode="t" horiz-adv-x="569" d="M-4 1034v-127h170v-735q0 -90 56.5 -137t174.5 -47q35 0 101 8q47 6 65 8v129q-8 0 -35 -4q-35 -4 -41 -4q-53 0 -85.5 13.5t-47 35t-17.5 44t-3 56.5v633h225v127h-225v275l-168 -76v-199h-170z" />
<glyph unicode="u" d="M700 348q0 -119 -62.5 -179t-139.5 -60q-86 0 -131 56t-45 152v717h-168v-788q0 -266 278 -266q82 0 151.5 37.5t110.5 107.5h6v-125h179q-10 119 -11 215v819h-168v-686z" />
<glyph unicode="v" horiz-adv-x="909" d="M336 0h219l324 1034h-177l-249 -876h-4l-232 876h-188z" />
<glyph unicode="w" horiz-adv-x="1478" d="M276 0h226l231 881h4l221 -881h226l276 1034h-178l-205 -891h-4l-211 891h-237l-230 -891h-4l-186 891h-187z" />
<glyph unicode="x" horiz-adv-x="909" d="M553 541l309 493h-203l-208 -370l-197 370h-215l295 -493l-322 -541h199l223 424l240 -424h221z" />
<glyph unicode="y" horiz-adv-x="909" d="M211 1034h-195l351 -1034l-117 -391h174l469 1425h-182l-248 -841h-4z" />
<glyph unicode="z" horiz-adv-x="796" d="M711 1034h-617v-137h428v-4l-450 -735v-158h653v137h-471l457 744v153z" />
<glyph unicode="{" horiz-adv-x="561" d="M367 401q0 121 -42 188.5t-167 94.5v4q123 23 166 82t43 166v313q0 94 36.5 139.5t141.5 45.5v114q-76 0 -133.5 -8t-106.5 -33.5t-77.5 -81t-28.5 -143.5v-381q0 -72 -44 -104.5t-141 -53.5v-114l54 -19q72 -23 101.5 -50.5t29.5 -102.5v-404q0 -166 71.5 -233.5 t274.5 -67.5v115q-102 0 -140 45t-38 137v352z" />
<glyph unicode="|" horiz-adv-x="512" d="M193 -512h126v2048h-126v-2048z" />
<glyph unicode="}" horiz-adv-x="561" d="M193 49q0 -92 -38 -137t-141 -45v-115q205 0 275.5 67.5t70.5 233.5v404q0 76 30 103.5t102 49.5l53 19v114q-96 20 -140.5 53t-44.5 105v381q0 88 -28.5 143.5t-77.5 81t-106.5 33.5t-133.5 8v-114q104 0 141.5 -45.5t37.5 -139.5v-313q0 -106 44 -165.5t164 -82.5v-4 q-125 -27 -166.5 -94.5t-41.5 -188.5v-352z" />
<glyph unicode="~" d="M330 680q-80 0 -135.5 -65.5t-104.5 -176.5l70 -98l2 2q37 86 73.5 134t94.5 48q31 0 59.5 -11t69.5 -34l12 -6l29 -14q68 -35 116 -55.5t82 -20.5q78 0 136.5 64.5t101.5 162.5l-70 97q-31 -70 -72.5 -120t-93.5 -50q-25 0 -57.5 14t-87.5 43l-29 14q-57 33 -106 52.5 t-90 19.5z" />
<glyph unicode="&#xa1;" horiz-adv-x="681" d="M438 1087h-192v-213h192v213zM270 745l-41 -1136h224l-37 1136h-146z" />
<glyph unicode="&#xa2;" horiz-adv-x="909" d="M297 274h-4q-23 96 -23 299q0 102 15.5 171t44 106t66.5 52.5t91 15.5q43 0 68 -19zM637 344q-2 -96 -39 -162.5t-111 -66.5q-98 0 -145 59l272 657q16 -47 17 -129h174q0 223 -121 302l53 131l-71 30l-54 -129q-55 18 -125 19q-129 0 -208.5 -42t-119.5 -117t-52.5 -169 t-12.5 -225q0 -164 30 -269.5t85 -164.5l-64 -154l76 -33l58 137q78 -41 208 -41q59 0 118 25t106 73t74.5 116.5t27.5 152.5h-176z" />
<glyph unicode="&#xa3;" horiz-adv-x="909" d="M-8 692h164v-528h-152v-164h873v164h-533v528h283v164h-283v174q0 66 5 108t21.5 75.5t54.5 53t99 19.5q90 0 127 -54t37 -157h197q0 182 -93.5 275.5t-265.5 93.5q-119 0 -195.5 -37t-114.5 -92t-50 -114.5t-12 -117.5q0 -20 2 -45v-16v-166h-164v-164z" />
<glyph unicode="&#xa4;" horiz-adv-x="909" d="M2 225l96 -108l80 88q66 -51 130.5 -77t137.5 -26q160 0 285 103l82 -88l96 108l-78 86q45 76 66 143.5t21 149.5q0 94 -20.5 169t-66.5 151l78 88l-96 108l-82 -88q-129 100 -268 101q-164 0 -285 -101l-80 88l-96 -108l80 -88q-47 -74 -67.5 -145.5t-20.5 -164.5 q0 -86 21.5 -157.5t66.5 -145.5zM463 995q129 0 208 -110.5t79 -263.5q0 -162 -82 -271.5t-217 -109.5q-129 0 -209 110.5t-80 263.5q0 166 81 273.5t220 107.5z" />
<glyph unicode="&#xa5;" horiz-adv-x="909" d="M135 270h234v-270h168v270h237v138h-237v135h237v137h-186l327 741h-180l-274 -657l-266 657h-199l321 -741h-182v-137h234v-135h-234v-138z" />
<glyph unicode="&#xa6;" horiz-adv-x="512" d="M193 358v-716h126v716h-126zM193 1382v-716h126v716h-126z" />
<glyph unicode="&#xa7;" horiz-adv-x="909" d="M444 582q-18 8 -45 18q-63 27 -90.5 53.5t-27.5 91.5q0 39 18 71t46 53.5t50.5 32.5l42.5 20l33 -13q66 -23 104.5 -52.5t38.5 -92.5q0 -37 -18 -68.5t-47 -56.5t-57 -39t-48 -18zM141 10q147 -41 271 -41q164 0 273.5 78t109.5 236q0 94 -63.5 159.5t-160.5 85.5v4 q92 31 151.5 103t59.5 166q0 57 -21.5 99t-56 69.5t-74.5 45t-102 40.5q-100 37 -148 70.5t-48 97.5q0 61 53 95t119 34q47 0 91 -11.5t114 -35.5l18 -7v172q-111 39 -233 39q-66 0 -129.5 -17t-114.5 -54t-81 -95.5t-30 -134.5q0 -90 47 -144t138 -97 q-98 -47 -154.5 -108.5t-56.5 -156.5q0 -61 23.5 -104t61.5 -71.5t78.5 -45t110.5 -41.5q111 -37 163 -71.5t52 -104.5q0 -68 -59.5 -102.5t-136.5 -34.5q-70 0 -121.5 13.5t-108.5 33.5q-27 10 -35 12v-176z" />
<glyph unicode="&#xa8;" horiz-adv-x="569" d="M201 1421h-193v-213h193v213zM561 1421h-192v-213h192v213z" />
<glyph unicode="&#xa9;" horiz-adv-x="1638" d="M821 1509q-156 0 -297 -59t-248.5 -164.5t-167 -246t-59.5 -298.5t59.5 -299t166 -247.5t248 -166t298.5 -59.5q156 0 296 59.5t246.5 166t166 248t59.5 298.5q0 158 -59.5 298.5t-166 246t-246.5 164.5t-296 59zM821 1395q135 0 254 -50.5t209 -141.5t140.5 -211 t50.5 -253q0 -135 -50.5 -254.5t-139.5 -210t-209 -140.5t-255 -50t-255 50t-210 140.5t-141 211t-51 253.5t51 253t141 211t210 141.5t255 50.5zM649 926q0 98 42 138t126 40q33 0 55.5 -4t43 -18.5t31.5 -44t11 -81.5h144q0 135 -65.5 199t-211.5 64q-92 0 -154.5 -26 t-99.5 -73q-66 -84 -65 -252v-206q0 -121 30.5 -194t79 -106.5t100.5 -43t118 -9.5q139 0 210.5 76t71.5 205h-143q-2 -78 -38 -122t-120 -44q-82 0 -124 45t-42 166v291z" />
<glyph unicode="&#xaa;" horiz-adv-x="614" d="M420 1186q0 -72 -13.5 -120t-35 -73.5t-47 -35t-54.5 -9.5q-51 0 -74.5 32t-23.5 81q0 43 18.5 68.5t50 38t64.5 14.5t90 4h25zM422 877h147q-14 82 -14 147v299q0 86 -59.5 136t-194.5 50q-115 0 -180.5 -43t-69.5 -143h129q0 51 32 76.5t85 25.5q74 0 98.5 -39.5 t24.5 -115.5q-82 0 -148.5 -8.5t-120 -29t-84 -61.5t-30.5 -102q0 -94 50 -149.5t153 -55.5q135 0 178 103h4v-90z" />
<glyph unicode="&#xab;" horiz-adv-x="909" d="M248 158h160l-160 395l162 401h-156l-191 -401zM600 158h160l-160 395l162 401h-156l-190 -401z" />
<glyph unicode="&#xac;" d="M809 240h127v546h-848v-127h721v-419z" />
<glyph unicode="&#xad;" d="M88 455h848v127h-848v-127z" />
<glyph unicode="&#x2212;" d="M88 455h848v127h-848v-127z" />
<glyph unicode="&#xae;" horiz-adv-x="1638" d="M821 1509q-156 0 -297 -59t-248.5 -164.5t-167 -246t-59.5 -298.5t59.5 -299t166 -247.5t248 -166t298.5 -59.5q156 0 296 59.5t246.5 166t166 248t59.5 298.5q0 158 -59.5 298.5t-166 246t-246.5 164.5t-296 59zM821 1395q135 0 254 -50.5t209 -141.5t140.5 -211 t50.5 -253q0 -135 -50.5 -254.5t-139.5 -210t-209 -140.5t-255 -50t-255 50t-210 140.5t-141 211t-51 253.5t51 253t141 211t210 141.5t255 50.5zM676 690h143q49 0 88 -19.5t45 -80.5l6 -101q2 -76 8.5 -120.5t22.5 -73.5h141q-12 37 -22 110.5t-12 120.5q-4 129 -37 172 t-119 54v4q86 16 139.5 71.5t53.5 133.5q0 90 -64.5 155.5t-183.5 65.5h-353v-887h144v395zM676 1083h184q66 0 97.5 -39.5t31.5 -95.5q0 -61 -32.5 -102t-96.5 -41h-184v278z" />
<glyph unicode="&#xaf;" horiz-adv-x="569" d="M2 1360v-115h565v115h-565z" />
<glyph unicode="&#xb0;" horiz-adv-x="819" d="M717 1137q0 61 -23.5 117.5t-66.5 99.5t-99.5 66.5t-117.5 23.5t-117.5 -23.5t-99.5 -66.5t-67 -98.5t-24 -118.5q0 -61 24 -117.5t67 -99.5t99 -67t118 -24q61 0 117.5 24t99.5 66t66.5 98.5t23.5 119.5zM590 1137q0 -76 -53.5 -128.5t-126.5 -52.5q-76 0 -128.5 52.5 t-52.5 128.5t52.5 128t126.5 52q76 0 129 -53t53 -127z" />
<glyph unicode="&#xb1;" d="M449 702h-361v-127h361v-331h126v331h361v127h-361v332h-126v-332zM88 0h848v127h-848v-127z" />
<glyph unicode="&#xb2;" horiz-adv-x="544" d="M524 578v108h-329l139 170q109 129 147.5 196.5t38.5 168.5q0 115 -63.5 169t-202.5 54q-106 0 -165.5 -61.5t-59.5 -155.5l2 -13v-14h145q0 57 19.5 93t66.5 36q57 0 86 -28.5t29 -73.5q0 -41 -10.5 -77t-35 -75t-59 -85t-112.5 -138l-133 -166v-108h497z" />
<glyph unicode="&#xb3;" horiz-adv-x="544" d="M195 975q109 0 153.5 -37t44.5 -131q0 -63 -31.5 -98t-109.5 -35q-70 0 -93.5 35.5t-25.5 103.5h-131q0 -47 7 -88t30.5 -79t73 -62.5t129.5 -24.5q137 0 216 62.5t79 183.5q0 190 -213 215v4l6 2q33 6 61.5 16.5t57 31t48 58t19.5 91.5q0 109 -68.5 165t-191.5 56 q-238 0 -238 -234h129q0 63 24 97t85 34q63 0 90 -34.5t27 -92.5q0 -141 -178 -141v-98z" />
<glyph unicode="&#xb4;" horiz-adv-x="569" d="M305 1479l-182 -289h137l268 289h-223z" />
<glyph unicode="&#xb5;" d="M700 0h179q-10 119 -11 215v819h-168v-686q0 -119 -62.5 -179t-139.5 -60q-86 0 -131 56t-45 152v717h-168v-1425h168v391q12 -6 49 -13t61 -7q82 0 151.5 37.5t110.5 107.5h6v-125z" />
<glyph unicode="&#xb6;" horiz-adv-x="901" d="M338 -248h143v1589h168v-1589h144v1727h-402q-117 0 -192.5 -41t-114.5 -103.5t-53.5 -128t-14.5 -125.5q0 -78 26 -148.5t71 -124.5t103 -85t122 -31v-940z" />
<glyph unicode="&#xb7;" horiz-adv-x="454" d="M324 625h-193v-213h193v213z" />
<glyph unicode="&#x2219;" horiz-adv-x="454" d="M324 625h-193v-213h193v213z" />
<glyph unicode="&#xb8;" horiz-adv-x="569" d="M168 -215q4 0 18 6q39 10 60 10q43 0 71.5 -21.5t28.5 -62.5q0 -43 -36 -62.5t-81 -19.5q-33 0 -60.5 7.5t-70.5 23.5h-2l-35 -82q49 -20 100.5 -32.5t102.5 -12.5q94 0 166 47t72 144q0 72 -48 113.5t-122 41.5q-29 0 -62 -12l-4 4l94 123h-98l-129 -176z" />
<glyph unicode="&#xb9;" horiz-adv-x="544" d="M385 1430h-127q-33 -27 -84 -61t-72 -42v-121l140 86v-714h143v852z" />
<glyph unicode="&#xba;" horiz-adv-x="614" d="M307 948q-82 0 -106.5 57.5t-24.5 215.5q0 121 32 162.5t99 41.5q68 0 99.5 -42t31.5 -162q0 -158 -24.5 -215.5t-106.5 -57.5zM307 864q61 0 106.5 11.5t82 44t57 96t20.5 162.5q0 78 -10 135t-36.5 102t-81 69.5t-138.5 24.5t-137 -24.5t-81 -69.5t-38 -102.5 t-10 -134.5q0 -98 20.5 -162t56.5 -96.5t82 -44t107 -11.5z" />
<glyph unicode="&#xbb;" horiz-adv-x="909" d="M309 158l185 395l-191 401h-156l162 -401l-159 -395h159zM662 158l184 395l-191 401h-155l162 -401l-160 -395h160z" />
<glyph unicode="&#xbc;" horiz-adv-x="1363" d="M1040 201v-201h144v201h108v114h-108v537h-203l-262 -547v-104h321zM850 315l186 410h4v-410h-190zM385 1430h-127q-33 -27 -84 -61t-72 -42v-121l140 86v-714h143v852zM262 -55l893 1534h-127l-895 -1534h129z" />
<glyph unicode="&#xbd;" horiz-adv-x="1363" d="M1286 0v109h-330l140 170q109 129 147.5 196.5t38.5 167.5q0 115 -63.5 169t-202.5 54q-106 0 -165.5 -61.5t-59.5 -155.5l2 -12v-14h145q0 57 19.5 93t66.5 36q57 0 86 -29t29 -74q0 -41 -10.5 -76.5t-35 -74.5t-59.5 -85t-112 -139l-134 -165v-109h498zM324 1430h-127 q-33 -27 -84.5 -61t-71.5 -42v-121l139 86v-714h144v852zM201 -55l893 1534h-127l-895 -1534h129z" />
<glyph unicode="&#xbe;" horiz-adv-x="1363" d="M1071 201v-201h143v201h109v114h-109v537h-202l-262 -547v-104h321zM881 315l186 410h4v-410h-190zM205 975q109 0 153.5 -37t44.5 -131q0 -63 -31.5 -98t-109.5 -35q-70 0 -93.5 35.5t-25.5 103.5h-131q0 -47 7.5 -88t31 -79t72.5 -62.5t129 -24.5q137 0 216 62.5 t79 183.5q0 190 -213 215v4l6 2q33 6 61.5 16.5t57 31t48 58t19.5 91.5q0 109 -68.5 165t-191.5 56q-238 0 -237 -234h129q0 63 23.5 97t84.5 34q63 0 90 -34.5t27 -92.5q0 -141 -178 -141v-98zM334 -55l893 1534h-127l-895 -1534h129z" />
<glyph unicode="&#xbf;" horiz-adv-x="909" d="M545 713h-168v-191q0 -43 -23.5 -82t-72.5 -100q-84 -102 -130.5 -194.5t-46.5 -225.5q0 -158 89.5 -250t244.5 -92q188 0 272.5 106.5t84.5 315.5h-193q0 -59 -5 -107.5t-20.5 -88.5t-46 -64.5t-79.5 -24.5q-76 0 -115 61.5t-39 139.5q0 96 37 171t106 169q53 72 79 121 t26 102v234zM557 1087h-192v-213h192v213z" />
<glyph unicode="&#xc0;" horiz-adv-x="1251" d="M383 1923l268 -289h137l-182 289h-223zM31 0h190l111 352h571l107 -352h211l-482 1479h-239zM852 516h-473l231 789h4z" />
<glyph unicode="&#xc1;" horiz-adv-x="1251" d="M647 1923l-182 -289h137l268 289h-223zM31 0h190l111 352h571l107 -352h211l-482 1479h-239zM852 516h-473l231 789h4z" />
<glyph unicode="&#xc2;" horiz-adv-x="1251" d="M762 1634h164l-205 289h-189l-204 -289h164l135 193zM31 0h190l111 352h571l107 -352h211l-482 1479h-239zM852 516h-473l231 789h4z" />
<glyph unicode="&#xc3;" horiz-adv-x="1251" d="M870 1866q-8 -92 -104 -92q-31 0 -115 36l-6 2q-94 37 -153 37q-96 0 -149.5 -60t-63.5 -161h94q4 35 31.5 63.5t62.5 28.5q51 0 147 -39l17 -6q90 -33 131 -33q92 0 149 68q53 63 64 156h-105zM31 0h190l111 352h571l107 -352h211l-482 1479h-239zM852 516h-473l231 789 h4z" />
<glyph unicode="&#xc4;" horiz-adv-x="1251" d="M543 1866h-193v-213h193v213zM903 1866h-192v-213h192v213zM31 0h190l111 352h571l107 -352h211l-482 1479h-239zM852 516h-473l231 789h4z" />
<glyph unicode="&#xc5;" horiz-adv-x="1251" d="M627 1612q86 0 146.5 60.5t60.5 146.5t-59.5 146t-147.5 60q-86 0 -146.5 -60t-60.5 -146t61.5 -146.5t145.5 -60.5zM750 1819q0 -49 -37 -86t-86 -37q-51 0 -87 36.5t-36 86.5q0 51 35.5 87t87.5 36q49 0 86 -36t37 -87zM31 0h190l111 352h571l107 -352h211l-482 1479 h-239zM852 516h-473l231 789h4z" />
<glyph unicode="&#xc6;" horiz-adv-x="1705" d="M229 0l150 352h561l51 -352h627v164h-465l-72 512h500v164h-528l-64 475h608v164h-917l-649 -1479h198zM918 516h-463l346 811h4z" />
<glyph unicode="&#xc7;" horiz-adv-x="1138" d="M1012 1071q0 6 2 31v26q0 190 -94.5 285.5t-294.5 95.5q-115 0 -201 -25.5t-147.5 -87t-94 -166t-32.5 -257.5v-418q0 -174 32.5 -287.5t87 -176t118 -87t138.5 -31.5l-108 -149l35 -39q4 0 18 6q39 10 59 10q43 0 72 -21.5t29 -62.5q0 -43 -36 -62.5t-81 -19.5 q-33 0 -60.5 7.5t-70.5 23.5h-2l-35 -82q49 -20 100.5 -32.5t102.5 -12.5q94 0 165.5 47t71.5 144q0 72 -48 113.5t-122 41.5q-29 0 -61 -12l-4 4l72 92q61 0 123.5 11.5t129 56.5t112.5 142t46 257h-194q0 -100 -27 -163.5t-64.5 -95.5t-74.5 -41t-68 -9q-61 0 -107 14.5 t-81 55.5t-55.5 122.5t-20.5 212.5v396q0 145 12.5 207.5t26.5 93.5q2 2 4 6q2 10 17.5 28.5t37.5 36.5q68 49 168 50q39 0 89.5 -16.5t76.5 -47.5q43 -51 43 -215h195z" />
<glyph unicode="&#xc8;" d="M268 1923l269 -289h137l-182 289h-224zM940 0v164h-586v512h533v164h-533v475h574v164h-762v-1479h774z" />
<glyph unicode="&#xc9;" d="M532 1923l-182 -289h137l269 289h-224zM940 0v164h-586v512h533v164h-533v475h574v164h-762v-1479h774z" />
<glyph unicode="&#xca;" d="M647 1634h164l-205 289h-188l-205 -289h164l135 193zM940 0v164h-586v512h533v164h-533v475h574v164h-762v-1479h774z" />
<glyph unicode="&#xcb;" d="M428 1866h-192v-213h192v213zM788 1866h-192v-213h192v213zM940 0v164h-586v512h533v164h-533v475h574v164h-762v-1479h774z" />
<glyph unicode="&#xcc;" horiz-adv-x="569" d="M41 1923l268 -289h137l-182 289h-223zM379 1479h-189v-1479h189v1479z" />
<glyph unicode="&#xcd;" horiz-adv-x="569" d="M305 1923l-182 -289h137l268 289h-223zM379 1479h-189v-1479h189v1479z" />
<glyph unicode="&#xce;" horiz-adv-x="569" d="M420 1634h164l-205 289h-189l-204 -289h164l135 193zM379 1479h-189v-1479h189v1479z" />
<glyph unicode="&#xcf;" horiz-adv-x="569" d="M201 1866h-193v-213h193v213zM561 1866h-192v-213h192v213zM379 1479h-189v-1479h189v1479z" />
<glyph unicode="&#xd0;" horiz-adv-x="1251" d="M170 0h340q190 0 308 47t179 143q47 74 68.5 218.5t21.5 377.5q0 29 -2 85.5t-9 129t-20.5 141t-33.5 111.5q-53 117 -152.5 171.5t-244.5 54.5h-455v-615h-143v-114h143v-750zM358 750h310v114h-310v451h248q150 0 219.5 -94.5t69.5 -315.5v-299q0 -129 -19.5 -215 t-61.5 -135t-108.5 -70.5t-168.5 -21.5h-179v586z" />
<glyph unicode="&#xd1;" horiz-adv-x="1366" d="M928 1866q-8 -92 -105 -92q-31 0 -114 36l-7 2q-94 37 -153 37q-96 0 -149.5 -60t-63.5 -161h94q4 35 31.5 63.5t62.5 28.5q51 0 148 -39l16 -6q90 -33 131 -33q92 0 150 68q53 63 63 156h-104zM1022 1479v-1266h-4l-576 1266h-266v-1479h168v1282h4l584 -1282h258v1479 h-168z" />
<glyph unicode="&#xd2;" horiz-adv-x="1251" d="M383 1923l268 -289h137l-182 289h-223zM625 -31q240 0 352.5 134.5t112.5 437.5v485q0 227 -118 355t-347 128t-347 -128t-118 -355v-485q0 -303 112.5 -437.5t352.5 -134.5zM625 127q-141 0 -207 87t-66 318v500q0 109 32 175.5t77 97t87 39t77 8.5t76.5 -8.5t87 -39 t77 -97t31.5 -175.5v-500q0 -231 -65.5 -318t-206.5 -87z" />
<glyph unicode="&#xd3;" horiz-adv-x="1251" d="M647 1923l-182 -289h137l268 289h-223zM625 -31q240 0 352.5 134.5t112.5 437.5v485q0 227 -118 355t-347 128t-347 -128t-118 -355v-485q0 -303 112.5 -437.5t352.5 -134.5zM625 127q-141 0 -207 87t-66 318v500q0 109 32 175.5t77 97t87 39t77 8.5t76.5 -8.5t87 -39 t77 -97t31.5 -175.5v-500q0 -231 -65.5 -318t-206.5 -87z" />
<glyph unicode="&#xd4;" horiz-adv-x="1251" d="M762 1634h164l-205 289h-189l-204 -289h164l135 193zM625 -31q240 0 352.5 134.5t112.5 437.5v485q0 227 -118 355t-347 128t-347 -128t-118 -355v-485q0 -303 112.5 -437.5t352.5 -134.5zM625 127q-141 0 -207 87t-66 318v500q0 109 32 175.5t77 97t87 39t77 8.5 t76.5 -8.5t87 -39t77 -97t31.5 -175.5v-500q0 -231 -65.5 -318t-206.5 -87z" />
<glyph unicode="&#xd5;" horiz-adv-x="1251" d="M870 1866q-8 -92 -104 -92q-31 0 -115 36l-6 2q-94 37 -153 37q-96 0 -149.5 -60t-63.5 -161h94q4 35 31.5 63.5t62.5 28.5q51 0 147 -39l17 -6q90 -33 131 -33q92 0 149 68q53 63 64 156h-105zM625 -31q240 0 352.5 134.5t112.5 437.5v485q0 227 -118 355t-347 128 t-347 -128t-118 -355v-485q0 -303 112.5 -437.5t352.5 -134.5zM625 127q-141 0 -207 87t-66 318v500q0 109 32 175.5t77 97t87 39t77 8.5t76.5 -8.5t87 -39t77 -97t31.5 -175.5v-500q0 -231 -65.5 -318t-206.5 -87z" />
<glyph unicode="&#xd6;" horiz-adv-x="1251" d="M543 1866h-193v-213h193v213zM903 1866h-192v-213h192v213zM625 -31q240 0 352.5 134.5t112.5 437.5v485q0 227 -118 355t-347 128t-347 -128t-118 -355v-485q0 -303 112.5 -437.5t352.5 -134.5zM625 127q-141 0 -207 87t-66 318v500q0 109 32 175.5t77 97t87 39t77 8.5 t76.5 -8.5t87 -39t77 -97t31.5 -175.5v-500q0 -231 -65.5 -318t-206.5 -87z" />
<glyph unicode="&#xd7;" d="M422 518l-334 -334l90 -90l334 334l334 -334l90 90l-334 334l334 334l-90 90l-334 -334l-334 334l-90 -90z" />
<glyph unicode="&#xd8;" horiz-adv-x="1251" d="M895 1065q2 -10 2 -33v-500q0 -231 -65.5 -318t-206.5 -87q-92 0 -150.5 37t-89.5 123zM360 401q-8 49 -8 131v500q0 109 32 175.5t77 97t87 39t77 8.5q27 0 57.5 -4.5t67 -20.5t69.5 -51t53 -90zM84 -20l70 -48l116 179q117 -141 355 -142q240 0 352.5 134.5 t112.5 437.5v485q0 156 -52 258l127 195l-71 47l-105 -162q-119 145 -364 145q-229 0 -347 -128t-118 -355v-485q0 -225 61 -353z" />
<glyph unicode="&#xd9;" horiz-adv-x="1251" d="M383 1923l268 -289h137l-182 289h-223zM160 541q0 -303 112.5 -437.5t352.5 -134.5t352.5 134.5t112.5 437.5v938h-189v-947q0 -231 -66.5 -318t-209.5 -87q-141 0 -209 87t-68 318v947h-188v-938z" />
<glyph unicode="&#xda;" horiz-adv-x="1251" d="M647 1923l-182 -289h137l268 289h-223zM160 541q0 -303 112.5 -437.5t352.5 -134.5t352.5 134.5t112.5 437.5v938h-189v-947q0 -231 -66.5 -318t-209.5 -87q-141 0 -209 87t-68 318v947h-188v-938z" />
<glyph unicode="&#xdb;" horiz-adv-x="1251" d="M762 1634h164l-205 289h-189l-204 -289h164l135 193zM160 541q0 -303 112.5 -437.5t352.5 -134.5t352.5 134.5t112.5 437.5v938h-189v-947q0 -231 -66.5 -318t-209.5 -87q-141 0 -209 87t-68 318v947h-188v-938z" />
<glyph unicode="&#xdc;" horiz-adv-x="1251" d="M543 1866h-193v-213h193v213zM903 1866h-192v-213h192v213zM160 541q0 -303 112.5 -437.5t352.5 -134.5t352.5 134.5t112.5 437.5v938h-189v-947q0 -231 -66.5 -318t-209.5 -87q-141 0 -209 87t-68 318v947h-188v-938z" />
<glyph unicode="&#xdd;" d="M532 1923l-182 -289h137l269 289h-224zM516 764l-289 715h-211l398 -916v-563h188v563l404 916h-191z" />
<glyph unicode="&#xde;" horiz-adv-x="1138" d="M379 1065h260q23 0 55.5 -8t68.5 -34t60.5 -77t24.5 -129q0 -82 -27.5 -133t-69.5 -76.5t-84 -34t-81 -8.5h-207v500zM190 0h189v401h248q66 0 135 17.5t132.5 62.5t104.5 126t41 200q0 125 -34.5 209t-93 130t-130 64.5t-153.5 18.5h-250v250h-189v-1479z" />
<glyph unicode="&#xdf;" horiz-adv-x="1138" d="M1026 317q0 66 -18.5 119t-50 95t-64.5 71t-82 68q-63 47 -93 79.5t-30 73.5q0 37 21.5 66t66.5 69q23 20 27 25q51 51 79.5 100.5t28.5 116.5q0 86 -29.5 146.5t-83 96.5t-122 51t-148.5 15q-51 0 -114.5 -15t-126 -52t-103.5 -100.5t-41 -155.5v-1186h168v1118 q0 55 5.5 95t27 77t67.5 59.5t121 22.5q90 0 140.5 -48t50.5 -140q0 -43 -25.5 -84t-79.5 -103q-53 -59 -79.5 -99t-26.5 -85q0 -92 44 -148.5t132 -121.5q82 -61 122 -111.5t40 -128.5q0 -82 -32 -135t-109 -53q-127 0 -127 141h-176q0 -147 79.5 -213t225.5 -66 q102 0 167.5 36t96.5 89.5t41 107.5t10 107z" />
<glyph unicode="&#xe0;" d="M268 1479l269 -289h137l-182 289h-224zM676 514v-29q2 -14 2 -28q0 -100 -19.5 -168t-50 -106t-67.5 -52t-78 -14q-80 0 -121 54t-41 136q0 74 29.5 117t78 61.5t101.5 23.5t133 5h33zM680 0h184q-20 133 -20 246v497q0 70 -15.5 125.5t-53.5 97.5t-104.5 65.5 t-162.5 23.5q-170 0 -257 -72t-93 -240h182v13l-2 12q0 72 43 116t121 44q55 0 91 -18.5t53.5 -50.5t24.5 -70.5t7 -90.5l-2 -28v-29h-33q-33 2 -35 2q-96 0 -177 -12.5t-148.5 -46t-108.5 -98t-41 -167.5q0 -162 63.5 -250.5t219.5 -88.5q96 0 158.5 40.5t101.5 129.5h4 v-150z" />
<glyph unicode="&#xe1;" d="M532 1479l-182 -289h137l269 289h-224zM676 514v-29q2 -14 2 -28q0 -100 -19.5 -168t-50 -106t-67.5 -52t-78 -14q-80 0 -121 54t-41 136q0 74 29.5 117t78 61.5t101.5 23.5t133 5h33zM680 0h184q-20 133 -20 246v497q0 70 -15.5 125.5t-53.5 97.5t-104.5 65.5 t-162.5 23.5q-170 0 -257 -72t-93 -240h182v13l-2 12q0 72 43 116t121 44q55 0 91 -18.5t53.5 -50.5t24.5 -70.5t7 -90.5l-2 -28v-29h-33q-33 2 -35 2q-96 0 -177 -12.5t-148.5 -46t-108.5 -98t-41 -167.5q0 -162 63.5 -250.5t219.5 -88.5q96 0 158.5 40.5t101.5 129.5h4 v-150z" />
<glyph unicode="&#xe2;" d="M647 1190h164l-205 289h-188l-205 -289h164l135 192zM676 514v-29q2 -14 2 -28q0 -100 -19.5 -168t-50 -106t-67.5 -52t-78 -14q-80 0 -121 54t-41 136q0 74 29.5 117t78 61.5t101.5 23.5t133 5h33zM680 0h184q-20 133 -20 246v497q0 70 -15.5 125.5t-53.5 97.5 t-104.5 65.5t-162.5 23.5q-170 0 -257 -72t-93 -240h182v13l-2 12q0 72 43 116t121 44q55 0 91 -18.5t53.5 -50.5t24.5 -70.5t7 -90.5l-2 -28v-29h-33q-33 2 -35 2q-96 0 -177 -12.5t-148.5 -46t-108.5 -98t-41 -167.5q0 -162 63.5 -250.5t219.5 -88.5q96 0 158.5 40.5 t101.5 129.5h4v-150z" />
<glyph unicode="&#xe3;" d="M756 1421q-8 -92 -105 -92q-31 0 -114 37l-7 2q-94 37 -153 37q-96 0 -149.5 -60.5t-63.5 -160.5h94q4 35 31.5 63.5t62.5 28.5q51 0 148 -39l16 -6q90 -33 131 -33q92 0 150 68q53 63 63 155h-104zM676 514v-29q2 -14 2 -28q0 -100 -19.5 -168t-50 -106t-67.5 -52 t-78 -14q-80 0 -121 54t-41 136q0 74 29.5 117t78 61.5t101.5 23.5t133 5h33zM680 0h184q-20 133 -20 246v497q0 70 -15.5 125.5t-53.5 97.5t-104.5 65.5t-162.5 23.5q-170 0 -257 -72t-93 -240h182v13l-2 12q0 72 43 116t121 44q55 0 91 -18.5t53.5 -50.5t24.5 -70.5 t7 -90.5l-2 -28v-29h-33q-33 2 -35 2q-96 0 -177 -12.5t-148.5 -46t-108.5 -98t-41 -167.5q0 -162 63.5 -250.5t219.5 -88.5q96 0 158.5 40.5t101.5 129.5h4v-150z" />
<glyph unicode="&#xe4;" d="M428 1421h-192v-213h192v213zM788 1421h-192v-213h192v213zM676 514v-29q2 -14 2 -28q0 -100 -19.5 -168t-50 -106t-67.5 -52t-78 -14q-80 0 -121 54t-41 136q0 74 29.5 117t78 61.5t101.5 23.5t133 5h33zM680 0h184q-20 133 -20 246v497q0 70 -15.5 125.5t-53.5 97.5 t-104.5 65.5t-162.5 23.5q-170 0 -257 -72t-93 -240h182v13l-2 12q0 72 43 116t121 44q55 0 91 -18.5t53.5 -50.5t24.5 -70.5t7 -90.5l-2 -28v-29h-33q-33 2 -35 2q-96 0 -177 -12.5t-148.5 -46t-108.5 -98t-41 -167.5q0 -162 63.5 -250.5t219.5 -88.5q96 0 158.5 40.5 t101.5 129.5h4v-150z" />
<glyph unicode="&#xe5;" d="M512 1167q86 0 146.5 60.5t60.5 146.5t-59.5 146.5t-147.5 60.5q-86 0 -146.5 -60.5t-60.5 -146.5t61.5 -146.5t145.5 -60.5zM635 1374q0 -49 -37 -86t-86 -37q-51 0 -87 37t-36 86q0 51 36 87t87 36q49 0 86 -36t37 -87zM676 514v-29q2 -14 2 -28q0 -100 -19.5 -168 t-50 -106t-67.5 -52t-78 -14q-80 0 -121 54t-41 136q0 74 29.5 117t78 61.5t101.5 23.5t133 5h33zM680 0h184q-20 133 -20 246v497q0 70 -15.5 125.5t-53.5 97.5t-104.5 65.5t-162.5 23.5q-170 0 -257 -72t-93 -240h182v13l-2 12q0 72 43 116t121 44q55 0 91 -18.5 t53.5 -50.5t24.5 -70.5t7 -90.5l-2 -28v-29h-33q-33 2 -35 2q-96 0 -177 -12.5t-148.5 -46t-108.5 -98t-41 -167.5q0 -162 63.5 -250.5t219.5 -88.5q96 0 158.5 40.5t101.5 129.5h4v-150z" />
<glyph unicode="&#xe6;" horiz-adv-x="1593" d="M877 618q0 98 19 162t50 95.5t62.5 42t64.5 10.5q61 0 101 -24.5t63 -67.5t32 -97.5t9 -120.5h-401zM1456 492q4 49 4 96q0 158 -37 255t-94 142t-118.5 57.5t-137.5 12.5q-90 0 -164.5 -36t-97.5 -114h-4q-31 88 -106.5 119t-188.5 31q-170 0 -257 -72t-93 -240h182v13 l-2 12q0 72 43 116t121 44q104 0 148 -50.5t44 -154.5v-105q-29 -2 -88 -4q-115 -4 -189.5 -14t-140 -41t-104.5 -96.5t-39 -173.5q0 -147 80 -228t225 -81q111 0 198 45t128 141q29 -92 112 -139t185 -47q123 0 202 32.5t117.5 83.5t52 109.5t13.5 126.5h-182 q-4 -102 -49 -158.5t-144 -56.5q-68 0 -108.5 30.5t-59 82t-23.5 103.5t-7 128v31h579zM698 492v-29q2 -14 2 -27q0 -100 -18 -163.5t-50 -97.5t-68 -46t-79 -12q-82 0 -121.5 46t-39.5 126q0 70 27.5 110.5t76.5 60t112.5 26t157.5 6.5z" />
<glyph unicode="&#xe7;" d="M862 702q0 176 -82 264.5t-235 88.5q-129 0 -209 -42t-120 -117t-52 -169t-12 -225q0 -147 23.5 -246.5t67.5 -157t101 -84t133 -32.5l-117 -158l35 -39q4 0 19 6q39 10 59 10q43 0 71.5 -21.5t28.5 -62.5q0 -43 -35.5 -62.5t-80.5 -19.5q-33 0 -60.5 7.5t-70.5 23.5h-2 l-35 -82q49 -20 100 -32.5t103 -12.5q94 0 165.5 47t71.5 144q0 72 -48 113.5t-122 41.5q-29 0 -61 -12l-4 4l79 105q49 4 99.5 24.5t95.5 61.5t73.5 110.5t28.5 165.5h-176q0 -66 -16 -111t-41 -70.5t-49.5 -35.5t-42.5 -10q-127 0 -172 99t-45 357q0 102 15 171t44 106 t67 52.5t91 15.5q57 0 100 -49.5t43 -166.5h174z" />
<glyph unicode="&#xe8;" d="M268 1479l269 -289h137l-182 289h-224zM311 590q0 102 15.5 169.5t42 104.5t61.5 50.5t78 13.5q51 0 88 -11.5t63.5 -46t41 -102.5t14.5 -178h-404zM893 463v88q0 270 -78 387t-291 117q-129 0 -208.5 -42t-119.5 -117t-52.5 -169t-12.5 -225q0 -164 29.5 -269.5t82 -160 t121 -73.5t160.5 -19q168 0 263.5 82.5t97.5 250.5h-185q-4 -84 -51 -140t-129 -56q-106 0 -157.5 71.5t-51.5 274.5h582z" />
<glyph unicode="&#xe9;" d="M532 1479l-182 -289h137l269 289h-224zM311 590q0 102 15.5 169.5t42 104.5t61.5 50.5t78 13.5q51 0 88 -11.5t63.5 -46t41 -102.5t14.5 -178h-404zM893 463v88q0 270 -78 387t-291 117q-129 0 -208.5 -42t-119.5 -117t-52.5 -169t-12.5 -225q0 -164 29.5 -269.5t82 -160 t121 -73.5t160.5 -19q168 0 263.5 82.5t97.5 250.5h-185q-4 -84 -51 -140t-129 -56q-106 0 -157.5 71.5t-51.5 274.5h582z" />
<glyph unicode="&#xea;" d="M647 1190h164l-205 289h-188l-205 -289h164l135 192zM311 590q0 102 15.5 169.5t42 104.5t61.5 50.5t78 13.5q51 0 88 -11.5t63.5 -46t41 -102.5t14.5 -178h-404zM893 463v88q0 270 -78 387t-291 117q-129 0 -208.5 -42t-119.5 -117t-52.5 -169t-12.5 -225 q0 -164 29.5 -269.5t82 -160t121 -73.5t160.5 -19q168 0 263.5 82.5t97.5 250.5h-185q-4 -84 -51 -140t-129 -56q-106 0 -157.5 71.5t-51.5 274.5h582z" />
<glyph unicode="&#xeb;" d="M428 1421h-192v-213h192v213zM788 1421h-192v-213h192v213zM311 590q0 102 15.5 169.5t42 104.5t61.5 50.5t78 13.5q51 0 88 -11.5t63.5 -46t41 -102.5t14.5 -178h-404zM893 463v88q0 270 -78 387t-291 117q-129 0 -208.5 -42t-119.5 -117t-52.5 -169t-12.5 -225 q0 -164 29.5 -269.5t82 -160t121 -73.5t160.5 -19q168 0 263.5 82.5t97.5 250.5h-185q-4 -84 -51 -140t-129 -56q-106 0 -157.5 71.5t-51.5 274.5h582z" />
<glyph unicode="&#xec;" horiz-adv-x="454" d="M-16 1479l268 -289h137l-182 289h-223zM311 0v1034h-168v-1034h168z" />
<glyph unicode="&#xed;" horiz-adv-x="454" d="M248 1479l-182 -289h137l268 289h-223zM311 0v1034h-168v-1034h168z" />
<glyph unicode="&#xee;" horiz-adv-x="454" d="M362 1190h164l-204 289h-189l-205 -289h164l135 192zM311 0v1034h-168v-1034h168z" />
<glyph unicode="&#xef;" horiz-adv-x="454" d="M143 1421h-192v-213h192v213zM504 1421h-193v-213h193v213zM311 0v1034h-168v-1034h168z" />
<glyph unicode="&#xf0;" d="M287 1167l180 105q88 -92 135 -165t72 -144l-4 -5q-41 41 -81 58.5t-102 17.5q-121 0 -195.5 -41t-111.5 -113.5t-49 -164.5t-12 -223q0 -162 29.5 -264.5t82 -157t121 -72.5t160.5 -18t160.5 18t121 71.5t82 157t29.5 265.5q0 164 -19.5 289.5t-57 225t-94 180.5 t-136.5 161l186 108l-61 68l-191 -113q-45 37 -97 72t-101 59l-113 -96q86 -45 172 -117l-170 -100zM512 115q-127 0 -172 97t-45 349q0 102 15.5 169t44 103.5t67.5 51t90 14.5t90 -14.5t67.5 -51t44 -103t15.5 -169.5q0 -252 -45 -349t-172 -97z" />
<glyph unicode="&#xf1;" d="M756 1421q-8 -92 -105 -92q-31 0 -114 37l-7 2q-94 37 -153 37q-96 0 -149.5 -60.5t-63.5 -160.5h94q4 35 31.5 63.5t62.5 28.5q51 0 148 -39l16 -6q90 -33 131 -33q92 0 150 68q53 63 63 155h-104zM877 0v717q0 168 -60.5 253t-216.5 85q-102 0 -164.5 -34t-111.5 -120 h-9v133h-178q10 -119 10 -215v-819h168v612q0 59 8.5 112.5t30 96.5t64.5 70t108 27q100 0 141.5 -54.5t41.5 -146.5v-717h168z" />
<glyph unicode="&#xf2;" d="M268 1479l269 -289h137l-182 289h-224zM512 117q-127 0 -172 99t-45 357q0 102 15.5 171t44 106t66.5 52.5t91 15.5t92 -15.5t66.5 -52.5t43 -105.5t15.5 -171.5q0 -258 -45 -357t-172 -99zM512 -20q92 0 160.5 19t121 73.5t82 160t29.5 269.5q0 131 -12 226t-52 169 t-120 116t-209 42t-209 -42t-120 -117t-52 -169t-12 -225q0 -164 29.5 -269.5t82 -160t121 -73.5t160.5 -19z" />
<glyph unicode="&#xf3;" d="M532 1479l-182 -289h137l269 289h-224zM512 117q-127 0 -172 99t-45 357q0 102 15.5 171t44 106t66.5 52.5t91 15.5t92 -15.5t66.5 -52.5t43 -105.5t15.5 -171.5q0 -258 -45 -357t-172 -99zM512 -20q92 0 160.5 19t121 73.5t82 160t29.5 269.5q0 131 -12 226t-52 169 t-120 116t-209 42t-209 -42t-120 -117t-52 -169t-12 -225q0 -164 29.5 -269.5t82 -160t121 -73.5t160.5 -19z" />
<glyph unicode="&#xf4;" d="M647 1190h164l-205 289h-188l-205 -289h164l135 192zM512 117q-127 0 -172 99t-45 357q0 102 15.5 171t44 106t66.5 52.5t91 15.5t92 -15.5t66.5 -52.5t43 -105.5t15.5 -171.5q0 -258 -45 -357t-172 -99zM512 -20q92 0 160.5 19t121 73.5t82 160t29.5 269.5 q0 131 -12 226t-52 169t-120 116t-209 42t-209 -42t-120 -117t-52 -169t-12 -225q0 -164 29.5 -269.5t82 -160t121 -73.5t160.5 -19z" />
<glyph unicode="&#xf5;" d="M756 1421q-8 -92 -105 -92q-31 0 -114 37l-7 2q-94 37 -153 37q-96 0 -149.5 -60.5t-63.5 -160.5h94q4 35 31.5 63.5t62.5 28.5q51 0 148 -39l16 -6q90 -33 131 -33q92 0 150 68q53 63 63 155h-104zM512 117q-127 0 -172 99t-45 357q0 102 15.5 171t44 106t66.5 52.5 t91 15.5t92 -15.5t66.5 -52.5t43 -105.5t15.5 -171.5q0 -258 -45 -357t-172 -99zM512 -20q92 0 160.5 19t121 73.5t82 160t29.5 269.5q0 131 -12 226t-52 169t-120 116t-209 42t-209 -42t-120 -117t-52 -169t-12 -225q0 -164 29.5 -269.5t82 -160t121 -73.5t160.5 -19z" />
<glyph unicode="&#xf6;" d="M428 1421h-192v-213h192v213zM788 1421h-192v-213h192v213zM512 117q-127 0 -172 99t-45 357q0 102 15.5 171t44 106t66.5 52.5t91 15.5t92 -15.5t66.5 -52.5t43 -105.5t15.5 -171.5q0 -258 -45 -357t-172 -99zM512 -20q92 0 160.5 19t121 73.5t82 160t29.5 269.5 q0 131 -12 226t-52 169t-120 116t-209 42t-209 -42t-120 -117t-52 -169t-12 -225q0 -164 29.5 -269.5t82 -160t121 -73.5t160.5 -19z" />
<glyph unicode="&#xf7;" d="M88 455h848v127h-848v-127zM608 1036h-192v-213h192v213zM608 213h-192v-213h192v213z" />
<glyph unicode="&#xf8;" d="M313 307q-18 96 -18 266q0 102 15.5 171t44 106t66.5 52.5t91 15.5q59 0 102 -22t70 -71zM715 735q14 -57 14 -162q0 -258 -45 -357t-172 -99q-123 0 -170 96zM786 967q-45 43 -112.5 65.5t-161.5 22.5q-129 0 -209 -42t-120 -117t-52 -169t-12 -225q0 -242 69 -369 l-114 -160l63 -45l99 140q49 -49 117.5 -68.5t158.5 -19.5q92 0 160.5 19t121 73.5t82 160t29.5 269.5q0 137 -14 234.5t-55 166.5l114 160l-65 41z" />
<glyph unicode="&#xf9;" d="M268 1479l269 -289h137l-182 289h-224zM700 348q0 -119 -62.5 -179t-139.5 -60q-86 0 -131 56t-45 152v717h-168v-788q0 -266 278 -266q82 0 151.5 37.5t110.5 107.5h6v-125h179q-10 119 -11 215v819h-168v-686z" />
<glyph unicode="&#xfa;" d="M532 1479l-182 -289h137l269 289h-224zM700 348q0 -119 -62.5 -179t-139.5 -60q-86 0 -131 56t-45 152v717h-168v-788q0 -266 278 -266q82 0 151.5 37.5t110.5 107.5h6v-125h179q-10 119 -11 215v819h-168v-686z" />
<glyph unicode="&#xfb;" d="M647 1190h164l-205 289h-188l-205 -289h164l135 192zM700 348q0 -119 -62.5 -179t-139.5 -60q-86 0 -131 56t-45 152v717h-168v-788q0 -266 278 -266q82 0 151.5 37.5t110.5 107.5h6v-125h179q-10 119 -11 215v819h-168v-686z" />
<glyph unicode="&#xfc;" d="M428 1421h-192v-213h192v213zM788 1421h-192v-213h192v213zM700 348q0 -119 -62.5 -179t-139.5 -60q-86 0 -131 56t-45 152v717h-168v-788q0 -266 278 -266q82 0 151.5 37.5t110.5 107.5h6v-125h179q-10 119 -11 215v819h-168v-686z" />
<glyph unicode="&#xfd;" horiz-adv-x="909" d="M475 1479l-182 -289h137l268 289h-223zM211 1034h-195l351 -1034l-117 -391h174l469 1425h-182l-248 -841h-4z" />
<glyph unicode="&#xfe;" d="M330 559q0 70 5 126t24.5 110.5t59.5 88.5t105 34q127 0 166 -96.5t39 -323.5q0 -82 -4 -140.5t-23.5 -115t-64.5 -91t-119 -34.5q-63 0 -101 33.5t-57.5 94t-24.5 134.5t-5 180zM162 -391h168v495h6q88 -125 235 -124q72 0 129.5 19t103.5 73.5t73.5 160t27.5 267.5 q0 125 -8 214t-41 168t-103.5 126t-189.5 47q-143 0 -229 -144h-4v568h-168v-1870z" />
<glyph unicode="&#xff;" horiz-adv-x="909" d="M371 1421h-193v-213h193v213zM731 1421h-192v-213h192v213zM211 1034h-195l351 -1034l-117 -391h174l469 1425h-182l-248 -841h-4z" />
<glyph unicode="&#x152;" horiz-adv-x="1705" d="M862 164h-254q-152 0 -210 100.5t-58 294.5v328q0 131 15.5 215t47 130t76.5 64.5t113 18.5h270v-1151zM1624 1479h-1020q-229 0 -343 -135.5t-114 -448.5v-344q0 -297 121 -424t391 -127h977v164h-585v512h532v164h-532v475h573v164z" />
<glyph unicode="&#x153;" horiz-adv-x="1593" d="M899 590q0 102 15.5 168.5t42 100.5t60.5 46.5t79 12.5q53 0 89 -10.5t62.5 -43.5t41 -98.5t14.5 -175.5h-404zM1481 463v88q0 270 -78 387t-291 117q-233 0 -301 -172h-4q-8 47 -37 81.5t-71 54t-89 28t-98 8.5q-129 0 -209 -42t-120 -117t-52 -169t-12 -225 q0 -164 29.5 -269.5t82 -160t121 -73.5t160.5 -19q98 0 169 35.5t118 127.5q35 -94 115.5 -128.5t197.5 -34.5q168 0 263 82.5t98 250.5h-185q-4 -84 -51 -140t-129 -56q-106 0 -157.5 71.5t-51.5 274.5h582zM512 117q-127 0 -172 99t-45 357q0 102 15.5 171t44 106 t66.5 52.5t91 15.5t92 -15.5t66.5 -52.5t43 -105.5t15.5 -171.5q0 -258 -45 -357t-172 -99z" />
<glyph unicode="&#x178;" d="M428 1866h-192v-213h192v213zM788 1866h-192v-213h192v213zM516 764l-289 715h-211l398 -916v-563h188v563l404 916h-191z" />
<glyph unicode="&#x2c6;" horiz-adv-x="569" d="M420 1190h164l-205 289h-189l-204 -289h164l135 192z" />
<glyph unicode="&#x2dc;" horiz-adv-x="569" d="M528 1421q-8 -92 -104 -92q-31 0 -115 37l-6 2q-94 37 -153 37q-96 0 -149.5 -60.5t-63.5 -160.5h94q4 35 31.5 63.5t62.5 28.5q51 0 147 -39l17 -6q90 -33 131 -33q92 0 149 68q53 63 64 155h-105z" />
<glyph unicode="&#x2000;" horiz-adv-x="1011" />
<glyph unicode="&#x2001;" horiz-adv-x="2025" />
<glyph unicode="&#x2002;" horiz-adv-x="1011" />
<glyph unicode="&#x2003;" horiz-adv-x="2025" />
<glyph unicode="&#x2004;" horiz-adv-x="673" />
<glyph unicode="&#x2005;" horiz-adv-x="505" />
<glyph unicode="&#x2006;" horiz-adv-x="335" />
<glyph unicode="&#x2007;" horiz-adv-x="335" />
<glyph unicode="&#x2008;" horiz-adv-x="251" />
<glyph unicode="&#x2009;" horiz-adv-x="403" />
<glyph unicode="&#x200a;" horiz-adv-x="110" />
<glyph unicode="&#x2010;" horiz-adv-x="681" d="M115 479h450v158h-450v-158z" />
<glyph unicode="&#x2011;" horiz-adv-x="681" d="M115 479h450v158h-450v-158z" />
<glyph unicode="&#x2012;" horiz-adv-x="681" d="M115 479h450v158h-450v-158z" />
<glyph unicode="&#x2013;" d="M0 498h1024v114h-1024v-114z" />
<glyph unicode="&#x2014;" horiz-adv-x="2048" d="M0 498h2048v114h-2048v-114z" />
<glyph unicode="&#x2018;" horiz-adv-x="454" d="M381 1479h-141l-168 -408h221z" />
<glyph unicode="&#x2019;" horiz-adv-x="454" d="M72 1071h141l168 408h-221z" />
<glyph unicode="&#x201a;" horiz-adv-x="454" d="M72 -227h141l168 407h-221z" />
<glyph unicode="&#x201c;" horiz-adv-x="909" d="M438 1477h-141l-168 -408h221zM780 1477h-141l-168 -408h221z" />
<glyph unicode="&#x201d;" horiz-adv-x="909" d="M129 1071h141l168 408h-221zM471 1071h141l168 408h-221z" />
<glyph unicode="&#x201e;" horiz-adv-x="909" d="M471 -227h141l168 407h-221zM129 -227h141l168 407h-221z" />
<glyph unicode="&#x2022;" horiz-adv-x="681" d="M655 739q0 63 -24.5 121t-68.5 102t-101.5 68.5t-120.5 24.5t-119.5 -24.5t-100.5 -68.5t-68.5 -101.5t-24.5 -121.5q0 -63 24.5 -119.5t68.5 -100.5t100 -68.5t120 -24.5q63 0 120.5 24.5t101.5 68.5t68.5 100.5t24.5 119.5z" />
<glyph unicode="&#x2026;" horiz-adv-x="2048" d="M438 213h-192v-213h192v213zM1120 213h-192v-213h192v213zM1802 213h-192v-213h192v213z" />
<glyph unicode="&#x202f;" horiz-adv-x="403" />
<glyph unicode="&#x2039;" horiz-adv-x="454" d="M233 158h160l-160 395l162 401h-155l-191 -401z" />
<glyph unicode="&#x203a;" horiz-adv-x="454" d="M221 158l185 395l-191 401h-156l162 -401l-160 -395h160z" />
<glyph unicode="&#x205f;" horiz-adv-x="505" />
<glyph unicode="&#x2122;" horiz-adv-x="1689" d="M1618 1479h-223l-215 -660h-4l-222 660h-227v-887h143v698h4l234 -698h117l245 698h5v-698h143v887zM-6 1479v-115h244v-772h143v772h244v115h-631z" />
<glyph unicode="&#xe000;" horiz-adv-x="1035" d="M0 1035h1035v-1035h-1035v1035z" />
<glyph unicode="&#xfb01;" d="M880 1034h-168v-1034h168v1034zM702 1298h189v181h-189v-181zM18 1034v-127h160v-907h168v907h209v127h-209v176q0 70 36 110t136 40l19 -2h18v121q-37 6 -80 6q-63 0 -114.5 -10.5t-92.5 -38t-65.5 -76.5t-24.5 -125v-201h-160z" />
<glyph unicode="&#xfb02;" d="M880 1479h-168v-1479h168v1479zM18 1034v-127h160v-907h168v907h209v127h-209v176q0 70 36 110t136 40l19 -2h18v121q-37 6 -80 6q-63 0 -114.5 -10.5t-92.5 -38t-65.5 -76.5t-24.5 -125v-201h-160z" />
<glyph unicode="&#xfb03;" horiz-adv-x="1593" d="M1450 1034h-168v-1034h168v1034zM1272 1298h189v181h-189v-181zM587 1034v-127h160v-907h168v907h209v127h-209v176q0 70 36 110t136 40l19 -2h18v121q-37 6 -80 6q-63 0 -114.5 -10.5t-92.5 -38t-65.5 -76.5t-24.5 -125v-201h-160zM18 1034v-127h160v-907h168v907h209 v127h-209v176q0 70 36 110t136 40l19 -2h18v121q-37 6 -80 6q-63 0 -114.5 -10.5t-92.5 -38t-65.5 -76.5t-24.5 -125v-201h-160z" />
<glyph unicode="&#xfb04;" horiz-adv-x="1593" d="M1450 1479h-168v-1479h168v1479zM587 1034v-127h160v-907h168v907h209v127h-209v176q0 70 36 110t136 40l19 -2h18v121q-37 6 -80 6q-63 0 -114.5 -10.5t-92.5 -38t-65.5 -76.5t-24.5 -125v-201h-160zM18 1034v-127h160v-907h168v907h209v127h-209v176q0 70 36 110 t136 40l19 -2h18v121q-37 6 -80 6q-63 0 -114.5 -10.5t-92.5 -38t-65.5 -76.5t-24.5 -125v-201h-160z" />
</font>
</defs>
</svg>
