<?xml version="1.0" standalone="no"?>
<!DOCTYPE svg PUBLIC "-//W3C//DTD SVG 1.1//EN" "http://www.w3.org/Graphics/SVG/1.1/DTD/svg11.dtd" >
<svg xmlns="http://www.w3.org/2000/svg" xmlns:xlink="http://www.w3.org/1999/xlink" version="1.1">
<metadata></metadata>
<defs>
<font id="brooklynsamuelsfouploadedfile" horiz-adv-x="978" >
<font-face units-per-em="2048" ascent="1532" descent="-516" />
<missing-glyph horiz-adv-x="342" />
<glyph unicode="&#xfb01;" horiz-adv-x="1005" d="M10 883v102q0 29 31 29h98q23 0 23 22v103q0 138 92 227q91 88 276 88q166 0 297 -78q28 -17 13 -43l-68 -119q-15 -27 -39 -12q-89 49 -176 49q-143 0 -143 -125v-90q0 -22 20 -22h449q30 0 30 -29v-956q0 -29 -30 -29h-193q-9 0 -19 8q-9 8 -9 21v805q0 18 -21 18h-207 q-20 0 -20 -21v-802q0 -29 -31 -29h-193q-9 0 -19 8q-9 7 -9 21v802q0 21 -23 21h-98q-13 0 -22 9t-9 22z" />
<glyph unicode="&#xfb02;" horiz-adv-x="1013" d="M10 883v102q0 29 31 29h98q23 0 23 22v109q0 131 74 200q72 68 210 68q106 0 197 -47q8 -5 17 0q10 5 10 14v37q0 29 30 29h193q9 0 19 -8t10 -21v-1388q0 -13 -10 -21t-19 -8h-193q-30 0 -30 29v1130q0 20 -19 31q-40 29 -116 29q-56 0 -89 -27q-32 -26 -32 -76v-80 q0 -22 20 -22h137q10 0 20 -8q9 -7 9 -21v-102q0 -13 -9 -22t-20 -9h-137q-20 0 -20 -21v-802q0 -29 -31 -29h-193q-9 0 -19 8q-9 7 -9 21v802q0 21 -23 21h-98q-13 0 -22 9t-9 22z" />
<glyph unicode="&#xfb03;" horiz-adv-x="1507" d="M10 883v102q0 29 31 29h92q21 0 21 22v156q0 124 75 190q77 68 213 68q114 0 201 -41q28 -12 16 -39l-57 -125q-10 -26 -39 -14q-28 14 -71 14q-86 0 -86 -80v-129q0 -22 20 -22h229q21 0 21 22v103q0 138 92 227q91 88 276 88q166 0 297 -78q28 -17 13 -43l-68 -119 q-15 -27 -39 -12q-89 49 -176 49q-143 0 -143 -125v-90q0 -22 20 -22h436q31 0 31 -29v-956q0 -29 -31 -29h-192q-10 0 -20 8q-9 7 -9 21v805q0 18 -20 18h-195q-20 0 -20 -21v-802q0 -29 -31 -29h-192q-10 0 -20 8q-9 8 -9 21v802q0 21 -23 21h-227q-20 0 -20 -21v-802 q0 -29 -31 -29h-193q-9 0 -19 8q-9 7 -9 21v802q0 21 -21 21h-92q-31 0 -31 31z" />
<glyph unicode="&#xfb04;" horiz-adv-x="1527" d="M10 883v102q0 29 31 29h92q21 0 21 22v156q0 124 75 190q77 68 213 68q117 0 207 -45q29 -12 17 -39l-60 -125q-11 -24 -37 -14q-40 18 -77 18q-86 0 -86 -80v-129q0 -22 20 -22h227q23 0 23 22v109q0 131 74 200q72 68 211 68q105 0 196 -47q8 -5 18 0q9 4 9 14v37 q0 29 30 29h193q9 0 19 -8t10 -21v-1388q0 -13 -10 -21t-19 -8h-193q-30 0 -30 29v1130q0 20 -19 31q-40 29 -116 29q-55 0 -88 -27t-33 -76v-80q0 -22 20 -22h137q10 0 20 -8q9 -8 9 -21v-102q0 -13 -9 -22t-20 -9h-137q-20 0 -20 -21v-802q0 -29 -31 -29h-192q-10 0 -20 8 q-9 8 -9 21v802q0 21 -23 21h-227q-20 0 -20 -21v-802q0 -29 -31 -29h-193q-9 0 -19 8q-9 7 -9 21v802q0 21 -21 21h-92q-31 0 -31 31z" />
<glyph horiz-adv-x="0" />
<glyph unicode="&#xd;" horiz-adv-x="681" />
<glyph unicode=" "  horiz-adv-x="342" />
<glyph unicode="&#x09;" horiz-adv-x="342" />
<glyph unicode="&#xa0;" horiz-adv-x="342" />
<glyph unicode="!" horiz-adv-x="522" d="M117 133q0 63 42 103q41 40 101 40q63 0 104 -40q42 -40 42 -103q0 -59 -44 -100t-102 -41t-101 41q-42 41 -42 100zM135 1417q0 10 8 20q7 9 21 9h192q29 0 29 -29v-950q0 -13 -9 -22t-22 -9h-188q-29 0 -29 31z" />
<glyph unicode="&#x22;" horiz-adv-x="702" d="M61 1333q0 53 36 88q37 35 89 35q53 0 88 -35t35 -88q0 -22 -18 -82l-70 -215q-6 -22 -28 -22h-13q-20 0 -30 22l-68 215q-21 57 -21 82zM395 1333q0 53 36 88q37 35 87 35q53 0 88 -35t35 -88q0 -22 -18 -82l-68 -215q-10 -22 -31 -22h-12q-23 0 -29 22l-69 215 q-19 54 -19 82z" />
<glyph unicode="#" horiz-adv-x="1099" d="M92 377v121q0 10 9 19t22 9h119q20 0 20 21v354q0 19 -20 19h-119q-13 0 -22 9t-9 21v121q0 11 9 20t22 9h119q20 0 20 20v234q0 12 9 21t22 9h121q28 0 28 -30v-234q0 -20 21 -20h176q20 0 20 20v234q0 11 10 21q9 9 19 9h121q12 0 21 -9q10 -10 10 -21v-234 q0 -20 22 -20h117q13 0 20 -9q9 -11 9 -20v-123q0 -8 -9 -19q-7 -9 -20 -9h-117q-22 0 -22 -19v-354q0 -21 22 -21h117q13 0 20 -9q9 -11 9 -19v-121q0 -31 -29 -31h-117q-22 0 -22 -20v-234q0 -9 -10 -19t-21 -10h-121q-9 0 -19 10t-10 19v234q0 20 -20 20h-176 q-21 0 -21 -20v-234q0 -9 -8 -19t-20 -10h-121q-12 0 -22 10q-9 9 -9 19v234q0 20 -20 20h-119q-13 0 -22 10t-9 21zM442 547q0 -21 21 -21h176q20 0 20 21v352q0 5 -6 13t-14 8h-176q-8 0 -14 -8q-7 -9 -7 -13v-352z" />
<glyph unicode="$" horiz-adv-x="954" d="M84 141l96 148q18 27 43 8q101 -74 223 -74q94 0 144 42q49 42 49 112v14q0 27 -4 44q-1 5 -2.5 12t-3 13l-2.5 10q-5 16 -20 34q-21 25 -23 28q-7 10 -37 32q-16 12 -42 32q-4 3 -11.5 8t-21.5 15t-25 17q-11 8 -25 17.5t-23.5 16t-15.5 10.5q-3 2 -9.5 6.5t-17.5 12.5 t-20 14q-12 8 -27 18.5t-18 12.5q-11 8 -39 30q-30 24 -38 33q-6 7 -31 32q-19 19 -28 37q-7 15 -21 39q-11 20 -17 48q-1 4 -8 52q-5 33 -5 62v15q0 149 93 251q91 101 249 117v277q0 8 9 19q7 9 20 9h49q31 0 31 -28v-277q134 -15 250 -94q26 -16 10 -43l-94 -145 q-15 -27 -45 -9q-75 52 -156 52q-74 0 -117 -37t-43 -94v-9q0 -75 42 -119q46 -47 192 -141q171 -106 237 -194q68 -91 68 -234v-12q0 -160 -91 -264q-91 -105 -253 -127v-279q0 -30 -31 -30h-49q-29 0 -29 30v273q-196 6 -352 116q-25 19 -10 41z" />
<glyph unicode="%" horiz-adv-x="1720" d="M100 1040v121q0 132 91 214q92 83 229 83q134 0 226 -83q91 -82 91 -214v-121q0 -133 -90 -217t-227 -84q-138 0 -229 84t-91 217zM289 1040q0 -64 35 -101q34 -36 96 -36t96 36q35 37 35 101v121q0 64 -36 100q-35 35 -95 35q-62 0 -96 -35q-35 -37 -35 -100v-121z M342 15q-8 15 0 32l795 1366q18 33 61 33h154q21 0 28 -16q8 -17 -2 -31l-792 -1366q-21 -33 -64 -33h-153q-19 0 -27 15zM983 289v121q0 131 91 215q92 84 226 84q138 0 229 -84t91 -215v-121q0 -131 -91 -215t-229 -84q-136 0 -227 83q-90 83 -90 216zM1169 289 q0 -63 36 -101q35 -36 95 -36q64 0 97 36q35 38 35 101v121q0 62 -35 99q-35 36 -97 36t-96 -36q-35 -37 -35 -99v-121z" />
<glyph unicode="&#x26;" horiz-adv-x="1251" d="M164 358v172q0 208 168 304q30 16 2 40q-86 80 -86 203v41q0 156 106 252q107 96 275 96h18q167 0 273 -96t106 -252v-41q0 -149 -102 -231q-101 -81 -252 -98l-62 -7q-87 -7 -137 -60q-49 -52 -49 -134v-160q0 -83 56 -129q58 -47 147 -47h24q145 0 205 145 q12 26 -12 41l-109 64q-29 18 -6 45l88 100q15 18 39 6l483 -278q12 -7 13 -21t-6 -24l-91 -101q-16 -16 -41 -4l-122 72q-26 15 -41 -12q-135 -264 -416 -264h-31q-195 0 -317 107q-123 108 -123 271zM492 1059q0 -63 37 -101t98 -38h18q60 0 98 38q39 39 39 101v39 q0 71 -38 109t-99 38h-14q-61 0 -101 -38q-38 -37 -38 -109v-39z" />
<glyph unicode="'" horiz-adv-x="370" d="M61 1333q0 53 36 88q37 35 87 35q52 0 89 -35q36 -35 36 -88q0 -22 -18 -82l-70 -215q-10 -22 -28 -22h-13q-24 0 -30 22l-70 215q-19 54 -19 82z" />
<glyph unicode="(" horiz-adv-x="659" d="M143 723q0 592 275 1046q11 24 35 13l143 -53q32 -10 14 -41q-114 -223 -166 -436q-53 -217 -53 -529q0 -318 54 -532q53 -212 167 -433q15 -31 -14 -43l-141 -53q-25 -8 -39 12q-275 457 -275 1049z" />
<glyph unicode=")" horiz-adv-x="659" d="M59 -242q114 221 167 433q55 218 55 532q0 310 -54 531q-52 212 -166 434q-15 30 15 41l143 53q24 11 37 -13q272 -453 272 -1046q0 -597 -274 -1049q-14 -20 -37 -12l-141 53q-29 12 -17 43z" />
<glyph unicode="*" horiz-adv-x="890" d="M85 1318q-3 13 3 23l51 89q17 29 41 12l180 -115q8 -5 17 0q8 5 8 14l-8 213q0 13 9 22t22 9h102q10 0 19 -9q10 -10 10 -22l-7 -213q0 -9 9 -14q8 -5 16 0l178 113q8 6 23 3q14 -3 20 -13l51 -87q15 -28 -12 -43l-184 -100q-23 -16 -2 -26l188 -101q23 -17 8 -43 l-51 -88q-16 -28 -41 -10l-178 110q-8 7 -16 2q-9 -5 -9 -16l7 -209q1 -12 -9 -21q-12 -10 -20 -10h-102q-12 0 -22 10q-9 9 -9 21l8 209q0 12 -9 16q-10 5 -18 -2l-176 -110q-28 -15 -43 10l-51 88q-16 28 10 43l187 101q8 5 8 13t-8 13l-187 100q-10 4 -13 18z" />
<glyph unicode="+" horiz-adv-x="1173" d="M102 664v120q0 29 31 29h342q23 0 23 21v344q0 12 9 21t19 9h123q11 0 20 -9t9 -21v-344q0 -21 22 -21h342q11 0 20 -9t9 -20v-122q0 -11 -9 -20t-20 -9h-342q-22 0 -22 -21v-344q0 -13 -9 -20q-10 -8 -20 -8h-123q-9 0 -19 8q-9 7 -9 20v344q0 21 -23 21h-342 q-31 0 -31 31z" />
<glyph unicode="," horiz-adv-x="452" d="M83 -197q-3 14 5 29q59 77 59 129q0 50 -28 88q-33 43 -33 92q0 58 41 99t102 41t102 -41q40 -40 40 -99q0 -87 -56 -182q-55 -95 -141 -168q-30 -24 -55 -12l-21 6q-12 5 -15 18z" />
<glyph unicode="-" horiz-adv-x="659" d="M76 444v131q0 11 9 20t19 9h449q12 0 21 -9q10 -10 10 -20v-131q0 -9 -10 -19q-9 -9 -21 -9h-449q-10 0 -19 9t-9 19z" />
<glyph unicode="." horiz-adv-x="452" d="M84 131q0 59 42 100q43 41 101 41q60 0 101 -41t41 -100q0 -58 -41 -99q-40 -40 -101 -40q-60 0 -101 40q-42 41 -42 99z" />
<glyph unicode="/" horiz-adv-x="872" d="M18 -281l625 2018q10 28 41 28h150q17 0 24 -11q8 -13 4 -28l-622 -2017q-10 -28 -43 -28h-148q-17 0 -25 11q-10 13 -6 27z" />
<glyph unicode="0" horiz-adv-x="1003" d="M88 397v652q0 196 115 305q114 108 299 108t299 -108t114 -305v-652q0 -197 -114 -305t-299 -108t-299 108q-115 109 -115 305zM340 403q0 -208 162 -208t162 208v641q0 207 -162 207t-162 -204v-644z" />
<glyph unicode="1" horiz-adv-x="538" d="M66 1251l110 181q7 14 29 14h176q29 0 29 -29v-1388q0 -29 -29 -29h-195q-9 0 -19 8q-9 7 -9 21v1155q0 22 -21 22h-45q-16 0 -25 15q-8 14 -1 30z" />
<glyph unicode="2" horiz-adv-x="882" d="M39 29v108q0 23 14 43l412 617q92 142 92 237v25q0 84 -53 134t-146 50q-96 0 -168 -39q-29 -15 -40 15l-56 135q-10 27 12 39q128 69 285 69q192 0 305 -104q115 -106 115 -277v-39q0 -139 -147 -358l-299 -442q-5 -8 0 -16q4 -7 12 -7h381q9 0 19 -8q9 -7 9 -21v-161 q0 -13 -9 -21q-10 -8 -19 -8h-690q-29 0 -29 29z" />
<glyph unicode="3" horiz-adv-x="856" d="M68 92l55 135q13 32 43 15q74 -39 162 -39q100 0 160 57q61 58 61 150v28q0 94 -56 146q-58 53 -153 53q-72 0 -133 -21q-25 -8 -35 13l-16 30q-10 21 0 39l309 498q6 8 2 19q-5 12 -16 12h-326q-31 0 -31 28v162q0 29 31 29h627q30 0 30 -29v-108q0 -25 -18 -54 l-272 -419q-7 -9 -4 -17t12 -10q141 -16 222 -110q81 -93 81 -253v-47q0 -178 -125 -297q-124 -118 -322 -118q-145 0 -274 69q-24 15 -14 39z" />
<glyph unicode="4" horiz-adv-x="948" d="M47 385v117q0 17 8 33l477 888q12 23 41 23h175q28 0 28 -29v-852q0 -20 23 -20h71q13 0 22 -9t9 -22v-129q0 -12 -9 -21q-10 -10 -22 -10h-71q-23 0 -23 -20v-305q0 -29 -28 -29h-195q-29 0 -29 29v305q0 20 -22 20h-426q-29 0 -29 31zM297 551q5 -6 12 -6h193 q22 0 22 20v371q0 10 -10 11q-9 1 -14 -7l-203 -377q-5 -6 0 -12z" />
<glyph unicode="5" horiz-adv-x="858" d="M78 92l55 135q11 30 41 15q79 -41 162 -41q102 0 161 59q60 60 60 152v22q0 95 -56 147t-157 52q-95 0 -184 -53q-15 -10 -30 -1t-15 25v813q0 29 30 29h586q31 0 31 -29v-162q0 -10 -9 -19t-22 -9h-354q-23 0 -23 -23v-379q0 -22 23 -16q33 10 74 10q168 0 264 -99 t96 -278v-41q0 -178 -126 -298q-125 -119 -320 -119q-147 0 -275 69q-22 12 -12 39z" />
<glyph unicode="6" horiz-adv-x="972" d="M88 377v647q0 198 126 318t335 120q128 0 258 -67q24 -11 14 -37l-55 -137q-13 -30 -43 -15q-77 37 -158 37q-106 0 -165 -59q-60 -60 -60 -164v-275q0 -10 8 -13q9 -4 17 3q86 74 204 74q160 0 254 -101q95 -103 95 -274v-57q0 -174 -119 -284q-118 -109 -303 -109 q-182 0 -295 108t-113 285zM338 385q0 -88 42 -139t120 -51t122 51q44 52 44 139v43q0 86 -43 135t-117 49q-76 0 -122 -48q-46 -47 -46 -136v-43z" />
<glyph unicode="7" horiz-adv-x="817" d="M37 1255v162q0 29 31 29h692q28 0 28 -29v-90q0 -49 -10 -80l-375 -1220q-7 -27 -34 -27h-222q-10 0 -17 10q-8 11 -3 23l379 1165q5 13 -3 21t-20 8h-415q-13 0 -22 9t-9 19z" />
<glyph unicode="8" horiz-adv-x="993" d="M80 358v183q0 183 149 272q18 12 0 27q-116 98 -116 237v33q0 163 103 257q104 95 280 95q174 0 280 -95q105 -95 105 -257v-33q0 -136 -115 -237q-16 -16 2 -27q143 -89 143 -272v-183q0 -170 -110 -273t-305 -103q-196 0 -306 103t-110 273zM336 369q0 -81 43 -128 q43 -48 117 -48q72 0 116 48q43 47 43 128v190q0 81 -42 127q-42 47 -115 47q-78 0 -120 -46q-42 -47 -42 -128v-190zM354 1055q0 -69 39 -113q39 -43 105 -43q64 0 101 43q38 44 38 113v39q0 75 -38 116t-103 41q-66 0 -104 -41t-38 -116v-39z" />
<glyph unicode="9" horiz-adv-x="974" d="M57 1012v55q0 174 118 285q117 110 302 110t296 -108q112 -109 112 -287v-649q0 -198 -125 -317q-123 -117 -336 -117q-134 0 -258 67q-24 12 -12 41l55 131q13 30 43 15q75 -35 158 -35q106 0 164 57q59 57 59 164v276q0 11 -7 14q-8 3 -16 -3q-86 -74 -204 -74 q-162 0 -255 102q-94 103 -94 273zM309 1018q0 -86 42 -135t116 -49q77 0 124 48q46 47 46 136v43q0 88 -42 139t-120 51q-79 0 -122 -51q-44 -52 -44 -139v-43z" />
<glyph unicode=":" horiz-adv-x="452" d="M84 233q0 61 42 101q43 41 101 41q60 0 101 -41t41 -101q0 -58 -41 -99q-40 -40 -101 -40q-60 0 -101 40q-42 40 -42 99zM84 786q0 60 42 101q43 41 101 41q60 0 101 -41t41 -101q0 -59 -41 -100t-101 -41q-58 0 -101 41q-42 40 -42 100z" />
<glyph unicode=";" horiz-adv-x="454" d="M81 -102q-3 14 7 28q62 86 62 127q0 51 -31 90q-31 40 -31 90q0 61 40 101q41 41 101 41q62 0 103 -41t41 -101q0 -86 -57 -179t-142 -169q-27 -24 -55 -14l-23 8q-12 5 -15 19zM88 786q0 60 41 101t100 41t102 -41q42 -41 42 -101t-42 -100q-43 -41 -102 -41t-100 41 t-41 100z" />
<glyph unicode="&#x3c;" horiz-adv-x="1204" d="M102 690v66q0 24 25 35l940 376q12 5 24 -3q11 -7 11 -21v-121q0 -29 -25 -37l-639 -250q-10 -1 -10 -12t10 -12l639 -250q25 -6 25 -37v-119q0 -15 -11 -22q-13 -8 -24 -4l-940 376q-25 11 -25 35z" />
<glyph unicode="=" horiz-adv-x="1173" d="M102 483v121q0 29 31 29h909q11 0 20 -9t9 -20v-123q0 -10 -9 -19t-20 -9h-909q-12 0 -21 9q-10 10 -10 21zM102 844v121q0 28 31 28h909q11 0 20 -9t9 -19v-123q0 -11 -9 -20t-20 -9h-909q-31 0 -31 31z" />
<glyph unicode="&#x3e;" horiz-adv-x="1204" d="M102 305v119q0 31 27 37l637 250q10 1 10 12t-10 12l-637 250q-27 11 -27 37v121q0 13 12 21q12 7 23 3l942 -376q23 -11 23 -35v-66q0 -24 -23 -35l-942 -376q-10 -4 -23 4q-12 7 -12 22z" />
<glyph unicode="?" horiz-adv-x="862" d="M88 1311q-21 24 6 41q150 116 338 116q187 0 300 -101q114 -102 114 -267v-31q0 -107 -46 -181q-47 -76 -141 -149q-72 -66 -100 -118q-29 -53 -29 -127v-29q0 -11 -9 -20t-21 -9h-178q-29 0 -29 31v29q0 117 41 196q39 75 127 154q71 62 99 105q30 47 30 110v18 q0 71 -44 112q-43 40 -128 40q-101 0 -180 -64q-25 -19 -43 4zM268 133q0 63 42 103q41 40 102 40q62 0 103 -40q42 -40 42 -103q0 -60 -43 -100q-44 -41 -102 -41q-59 0 -102 41q-42 41 -42 100z" />
<glyph unicode="@" horiz-adv-x="2320" d="M104 272q0 217 111 428q111 212 289 366q181 157 412 250q235 95 473 95q372 0 601 -176q228 -176 228 -494q0 -152 -73 -298q-72 -143 -182 -240q-111 -97 -234 -155t-234 -58q-125 0 -172 96q-5 8 -14 8q-11 0 -17 -8q-98 -98 -243 -98q-151 -2 -242 103 q-92 106 -92 286v258q0 179 96 285t244 106q129 0 227 -88q6 -6 12 -4q7 2 9 8l12 49q11 23 33 23h159q10 0 20 -8q9 -8 9 -21v-778q0 -38 25 -55q24 -17 61 -11q169 27 313 204t144 390q0 259 -186 412t-502 153q-216 0 -425 -82q-208 -82 -369 -220q-159 -137 -256 -324 q-97 -188 -97 -387q0 -257 190 -413q192 -157 494 -157q218 0 409 84q30 15 41 -16l19 -51q12 -27 -13 -39q-214 -96 -454 -96q-363 0 -595 179q-231 178 -231 494zM958 385q0 -89 46 -140q45 -50 124 -50q70 0 129 49q27 21 27 55v414q0 34 -27 55q-59 49 -133 49 q-75 0 -120 -50q-46 -51 -46 -138v-244z" />
<glyph unicode="A" horiz-adv-x="1118" d="M27 37l469 1386q6 23 32 23h78q27 0 33 -23l461 -1386q4 -14 -5 -26q-8 -11 -24 -11h-186q-31 0 -37 25l-60 184q-11 29 -38 29h-367q-28 0 -39 -29l-57 -184q-8 -25 -37 -25h-195q-15 0 -23 11q-9 12 -5 26zM418 446q-4 -20 14 -20h268q22 0 15 20l-135 424 q-2 11 -13 11q-12 0 -14 -11z" />
<glyph unicode="B" horiz-adv-x="1060" d="M115 29v1388q0 29 28 29h420q163 0 258 -92q94 -91 94 -242v-78q0 -125 -100 -209q-27 -22 4 -39q85 -39 135 -113q52 -76 52 -169v-107q0 -170 -99 -281q-99 -112 -272 -116h-492q-28 0 -28 29zM367 246q0 -21 20 -21h172q83 0 130 44q46 43 46 126v99q0 157 -170 157 h-178q-20 0 -20 -22v-383zM367 862q0 -22 20 -22h125q70 5 109 44q41 41 41 111v74q0 71 -41 112q-40 40 -117 40h-117q-20 0 -20 -21v-338z" />
<glyph unicode="C" horiz-adv-x="983" d="M82 510v430q0 236 146 379t380 143q170 0 310 -92q27 -12 10 -41l-92 -143q-18 -27 -41 -10q-85 53 -183 53q-127 0 -200 -78q-74 -79 -74 -211v-430q0 -138 73 -217q72 -78 201 -78q99 0 185 57q24 15 41 -10l94 -145q15 -22 -10 -41q-137 -92 -310 -92q-238 0 -384 142 t-146 384z" />
<glyph unicode="D" horiz-adv-x="1140" d="M115 29v1388q0 10 8 20q7 9 20 9h394q239 0 381 -134q141 -134 141 -372v-436q0 -234 -146 -369q-145 -135 -372 -135h-398q-28 0 -28 29zM367 246q0 -21 20 -21h150q122 0 194 74q72 73 72 205v436q0 130 -73 206q-72 75 -198 75h-145q-20 0 -20 -21v-954z" />
<glyph unicode="E" horiz-adv-x="948" d="M115 29v1388q0 10 8 20q7 9 20 9h715q13 0 22 -9t9 -20v-168q0 -28 -31 -28h-471q-20 0 -20 -21v-358q0 -19 20 -19h315q31 0 31 -30v-148q0 -29 -31 -29h-315q-20 0 -20 -22v-348q0 -21 20 -21h471q13 0 22 -9t9 -19v-168q0 -29 -31 -29h-715q-28 0 -28 29z" />
<glyph unicode="F" horiz-adv-x="935" d="M115 29v1388q0 10 8 20q7 9 20 9h731q14 0 21 -9q8 -10 8 -20v-168q0 -28 -29 -28h-487q-20 0 -20 -21v-432q0 -20 20 -20h330q11 0 21 -10t10 -19v-148q0 -30 -31 -30h-330q-20 0 -20 -21v-491q0 -29 -31 -29h-193q-28 0 -28 29z" />
<glyph unicode="G" horiz-adv-x="1144" d="M82 504v436q0 235 148 379q147 143 384 143q174 0 314 -94q28 -15 12 -41l-94 -143q-17 -25 -41 -10q-83 55 -189 55q-124 0 -201 -78q-77 -79 -77 -211v-434q0 -134 73 -213q72 -78 195 -78q90 0 170 47q21 12 21 41v225q0 21 -21 21h-149q-13 0 -22 9t-9 20v131 q0 28 31 28h393q29 0 29 -28v-680q0 -9 -9 -20q-8 -9 -20 -9h-27q-17 0 -37 16l-67 66q-15 15 -31 0q-120 -98 -295 -98q-203 0 -342 139t-139 381z" />
<glyph unicode="H" horiz-adv-x="1179" d="M115 29v1388q0 29 30 29h193q10 0 19 -9q10 -10 10 -20v-573q0 -21 22 -21h404q20 0 20 21v573q0 11 9 20t22 9h192q14 0 21 -9q8 -10 8 -20v-1388q0 -29 -29 -29h-192q-31 0 -31 29v565q0 22 -20 22h-404q-22 0 -22 -22v-565q0 -13 -10 -21t-19 -8h-195q-28 0 -28 29z " />
<glyph unicode="I" horiz-adv-x="479" d="M115 29v1388q0 10 8 20q7 9 20 9h195q10 0 19 -9q10 -10 10 -20v-1388q0 -13 -10 -21t-19 -8h-195q-28 0 -28 29z" />
<glyph unicode="J" horiz-adv-x="714" d="M43 90l76 131q15 24 41 12q40 -22 92 -22q58 0 89 34q32 35 32 89v1083q0 10 8 20q8 9 20 9h195q12 0 20 -9q9 -11 9 -20v-1091q0 -142 -87 -239t-243 -97q-140 0 -240 59q-27 17 -12 41z" />
<glyph unicode="K" horiz-adv-x="1095" d="M115 29v1388q0 10 8 20q7 9 20 9h193q12 0 20 -9q9 -11 9 -20v-688q0 -20 20 -20h10q145 0 240 110q97 112 104 264l19 334q0 29 30 29h201q13 0 22 -9t7 -22l-19 -334q-16 -295 -233 -452q-14 -10 -6 -29l293 -557q10 -12 2 -28q-7 -15 -27 -15h-221q-19 0 -29 16 l-239 490q-7 22 -31 14q-48 -14 -113 -14h-10q-20 0 -20 -21v-456q0 -29 -29 -29h-193q-28 0 -28 29z" />
<glyph unicode="L" horiz-adv-x="897" d="M115 29v1388q0 10 8 20q7 9 20 9h195q10 0 19 -9q10 -10 10 -20v-1171q0 -21 22 -21h436q13 0 21 -9q8 -10 8 -19v-168q0 -29 -29 -29h-680q-30 0 -30 29z" />
<glyph unicode="M" horiz-adv-x="1372" d="M72 33l145 1388q5 25 29 25h24q17 0 27 -14l379 -631q5 -8 12 -8t12 8l379 631q10 14 27 14h24q24 0 29 -25l146 -1388q1 -15 -9 -24t-22 -9h-189q-23 0 -28 25l-78 749q0 5 -5 10t-11 3q-7 -2 -11 -7l-239 -383q-10 -14 -25 -14q-18 0 -24 14l-240 383q-4 6 -10 7 q-7 2 -12 -3t-5 -10l-78 -749q-5 -25 -28 -25h-189q-12 0 -22 9q-10 8 -8 24z" />
<glyph unicode="N" horiz-adv-x="1214" d="M115 29v1388q0 10 8 20q7 9 20 9h27q20 0 27 -12l626 -791q7 -8 16 -5t9 13v766q0 10 8 20q8 9 21 9h192q31 0 31 -29v-1388q0 -29 -31 -29h-29q-20 0 -30 14l-617 791q-4 6 -10 7t-11 -4t-5 -11v-768q0 -29 -29 -29h-195q-28 0 -28 29z" />
<glyph unicode="O" horiz-adv-x="1210" d="M82 508v432q0 238 144 380q143 142 380 142q235 0 378 -142q144 -143 144 -380v-432q0 -237 -144 -381q-143 -143 -378 -143q-237 0 -380 143q-144 144 -144 381zM338 508q0 -138 73 -216q72 -77 195 -77t195 77q71 75 71 216v432q0 138 -71 213q-72 76 -195 76t-195 -76 q-73 -78 -73 -213v-432z" />
<glyph unicode="P" horiz-adv-x="1064" d="M115 29v1388q0 10 8 20q7 9 20 9h490q157 0 266 -112t109 -275v-121q0 -178 -112 -288q-110 -109 -271 -109h-238q-22 0 -22 -21v-491q0 -29 -29 -29h-193q-28 0 -28 29zM365 768q0 -23 22 -23h174q78 0 125 50t47 127v120q0 86 -48 132q-49 47 -134 47h-164 q-22 0 -22 -23v-430z" />
<glyph unicode="Q" horiz-adv-x="1210" d="M82 508v432q0 238 144 380q143 142 380 142q235 0 378 -142q144 -143 144 -380v-432q0 -192 -91 -319q-92 -128 -253 -177q-27 -7 -16 -32q33 -106 115 -174q82 -69 204 -76q29 -5 29 -31v-166q0 -31 -29 -31q-207 1 -361 127q-153 125 -206 334q-6 29 -37 35 q-185 35 -293 170t-108 340zM338 508q0 -138 73 -216q72 -77 195 -77t195 77q71 75 71 216v432q0 138 -71 213q-72 76 -195 76t-195 -76q-73 -78 -73 -213v-432z" />
<glyph unicode="R" horiz-adv-x="1093" d="M115 29v1388q0 29 30 29h482q160 0 269 -111q110 -112 110 -282v-179q0 -128 -63 -216q-64 -90 -163 -134q-20 -10 -16 -30q47 -267 287 -285q26 -4 26 -31v-162q0 -9 -8 -19q-7 -9 -20 -9q-222 0 -355 124q-132 123 -170 349q-4 22 -24 22h-113q-20 0 -20 -22v-432 q0 -13 -10 -21t-19 -8h-195q-28 0 -28 29zM367 698q0 -22 20 -22h170q79 0 129 50q49 49 49 134v178q0 90 -49 136q-50 47 -139 47h-160q-20 0 -20 -23v-500z" />
<glyph unicode="S" horiz-adv-x="935" d="M84 141l96 148q18 27 43 8q101 -74 223 -74q94 0 144 42q49 42 49 112v14q0 27 -4 44q-1 5 -2.5 12t-3 13l-2.5 10q-5 16 -20 34q-21 25 -23 28q-7 10 -37 32q-16 12 -42 32q-4 3 -11.5 8t-21.5 15t-25 17q-11 8 -25 17.5t-23.5 16t-15.5 10.5q-3 2 -9.5 6.5t-17.5 12.5 t-20 14q-12 8 -27 18.5t-18 12.5q-11 8 -39 30q-30 24 -38 33q-6 7 -31 32q-19 19 -28 37q-7 15 -21 39q-11 20 -17 48q-1 4 -8 52q-5 33 -5 62v15q0 165 109 268q108 102 291 102q160 0 301 -96q26 -16 10 -43l-94 -145q-15 -27 -45 -9q-75 52 -156 52q-74 0 -117 -37 t-43 -94v-9q0 -75 42 -119q46 -47 192 -141q171 -106 237 -194q68 -91 68 -234v-12q0 -182 -117 -290q-116 -107 -319 -107q-202 0 -369 116q-25 19 -10 41z" />
<glyph unicode="T" horiz-adv-x="931" d="M27 1249v168q0 29 30 29h820q10 0 19 -9t9 -20v-168q0 -13 -9 -20q-10 -8 -19 -8h-265q-20 0 -20 -23v-1169q0 -29 -31 -29h-192q-29 0 -29 29v1169q0 23 -23 23h-260q-30 0 -30 28z" />
<glyph unicode="U" horiz-adv-x="1173" d="M109 461v956q0 10 8 20q8 9 20 9h195q12 0 20 -9q8 -10 8 -20v-956q0 -118 59 -182t167 -64q107 0 168 64q59 62 59 182v956q0 11 9 20t20 9h194q14 0 21 -9q8 -10 8 -20v-956q0 -219 -131 -348q-130 -129 -348 -129q-216 0 -346 129q-131 129 -131 348z" />
<glyph unicode="V" horiz-adv-x="1114" d="M25 1409q-4 12 4 25q8 12 20 12h193q31 0 37 -27l266 -923q5 -11 12 -11q9 0 14 11l267 923q6 27 36 27h197q16 0 23 -11q8 -13 4 -26l-436 -1386q-8 -23 -35 -23h-144q-24 0 -32 23z" />
<glyph unicode="W" horiz-adv-x="1560" d="M23 1411q-2 16 5 25q7 10 19 10h203q31 0 37 -31l200 -897q4 -9 15 -11q10 -1 14 9l238 567q8 17 24 17h10q17 0 23 -17l240 -567q4 -10 15 -9q12 1 13 11l199 897q6 31 37 31h203q15 0 22 -11q9 -12 4 -24l-342 -1384q-6 -27 -35 -27h-100q-24 0 -35 23l-235 563 q-2 8 -15 8q-12 0 -14 -8l-233 -563q-11 -23 -35 -23h-103q-29 0 -35 27z" />
<glyph unicode="X" horiz-adv-x="1142" d="M45 13q-7 13 0 28l375 690q15 28 0 55l-332 619q-7 15 0 28t25 13h219q24 0 35 -21l194 -383q6 -12 19 -12q12 0 18 12l195 383q11 21 34 21h220q17 0 24 -13t0 -28l-332 -619q-15 -28 0 -55l375 -690q7 -15 0 -28t-22 -13h-224q-24 0 -34 20l-236 449q-6 10 -18 10 q-15 0 -19 -10l-235 -449q-10 -20 -33 -20h-223q-18 0 -25 13z" />
<glyph unicode="Y" horiz-adv-x="1105" d="M23 1407q-6 15 2 27q7 12 22 12h197q26 0 37 -25l260 -626q2 -9 12 -9h2q10 0 12 9l262 626q11 25 37 25h203q15 0 23 -12t2 -27l-402 -920q-12 -28 -12 -55v-395q0 -17 -11 -27t-26 -10h-178q-17 0 -27 10t-10 27v395q0 34 -10 55z" />
<glyph unicode="Z" horiz-adv-x="1003" d="M41 29v14q0 19 10 39l545 1108q4 9 -1 20t-17 11h-433q-9 0 -19 8q-9 7 -9 20v168q0 11 9 20t19 9h775q30 0 30 -29v-12q0 -17 -8 -35l-541 -1112q-4 -9 1 -21q4 -12 18 -12h485q31 0 31 -28v-168q0 -29 -31 -29h-835q-10 0 -20 8q-9 8 -9 21z" />
<glyph unicode="[" horiz-adv-x="643" d="M154 -289v2026q0 13 9 20q10 8 21 8h367q31 0 31 -28v-160q0 -31 -31 -31h-133q-8 0 -16 -6q-7 -6 -7 -14v-1606q0 -20 23 -20h133q31 0 31 -29v-160q0 -30 -31 -30h-367q-12 0 -21 9t-9 21z" />
<glyph unicode="\" horiz-adv-x="905" d="M35 1726q-4 16 5 28q8 11 26 11h149q33 0 39 -26l625 -2018q4 -14 -5 -28q-8 -12 -24 -12h-152q-29 0 -39 28z" />
<glyph unicode="]" horiz-adv-x="643" d="M61 -129q0 9 10 19t21 10h133q23 0 23 20v1606q0 20 -23 20h-133q-12 0 -21 9q-10 10 -10 22v160q0 9 10 19q9 9 21 9h367q30 0 30 -28v-2026q0 -30 -30 -30h-367q-31 0 -31 30v160z" />
<glyph unicode="^" horiz-adv-x="1040" d="M72 150l387 827q11 24 35 24h65q25 0 35 -24l387 -827q5 -12 -3 -24q-7 -11 -22 -11h-118q-24 0 -39 24l-258 576q-6 10 -15 10q-8 0 -14 -10l-258 -576q-15 -24 -37 -24h-119q-17 0 -24 11q-8 12 -2 24z" />
<glyph unicode="_" horiz-adv-x="1173" d="M-29 -274q0 8 9 19q8 9 20 9h1174q14 0 23 -9t9 -19v-132q0 -10 -9 -19t-23 -9h-1174q-12 0 -20 9q-9 11 -9 19v132z" />
<glyph unicode="`" horiz-adv-x="409" d="M-17 1350q2 17 15 24l108 64q27 15 50 -4l264 -213q12 -11 11 -25q-1 -15 -13 -22l-74 -46q-26 -10 -49 2l-299 195q-15 7 -13 25z" />
<glyph unicode="a" d="M66 377v258q0 178 95 285q94 106 242 106q134 0 230 -90q6 -6 12 -4t8 8l13 51q6 23 30 23h160q29 0 29 -29v-956q0 -29 -29 -29h-192q-29 0 -29 29v39q0 10 -7 13q-8 3 -16 -5q-88 -88 -213 -88q-151 0 -242 104t-91 285zM309 385q0 -88 45 -139t123 -51q72 0 131 49 q27 21 27 55v412q0 36 -27 57q-61 49 -133 49q-76 0 -121 -50q-45 -49 -45 -138v-244z" />
<glyph unicode="b" horiz-adv-x="980" d="M92 29v1388q0 29 31 29h192q29 0 29 -29v-465q0 -8 7 -11q8 -3 14 3q82 82 206 82q145 0 244 -106q98 -105 98 -285v-258q0 -180 -99 -285q-98 -104 -249 -104q-123 0 -219 90q-6 6 -12 4t-8 -10l-13 -52q-6 -20 -30 -20h-160q-31 0 -31 29zM344 301q0 -38 25 -57 q56 -49 131 -49q76 0 123 50t47 140v244q0 89 -46 138q-47 50 -124 50q-78 0 -131 -47q-25 -22 -25 -57v-412z" />
<glyph unicode="c" horiz-adv-x="753" d="M66 373v264q0 169 117 282t298 113q127 0 226 -59q27 -17 12 -41l-68 -131q-15 -28 -39 -13q-53 35 -125 35q-80 0 -128 -53q-48 -52 -48 -135v-258q0 -81 48 -134t128 -53q61 0 125 35q27 15 39 -14l66 -131q11 -27 -12 -39q-99 -59 -224 -59q-186 0 -300 113 q-115 114 -115 278z" />
<glyph unicode="d" d="M66 377v258q0 183 94 287t241 104q123 0 211 -82q6 -6 15 -3q8 3 8 11v465q0 29 29 29h192q29 0 29 -29v-1388q0 -29 -29 -29h-162q-22 0 -28 20l-13 54q-4 20 -20 4q-90 -90 -230 -90q-149 0 -243 106t-94 283zM309 385q0 -90 45 -140t121 -50q74 0 133 49q27 21 27 57 v410q0 37 -27 59q-50 47 -129 47q-80 0 -125 -50q-45 -49 -45 -138v-244z" />
<glyph unicode="e" horiz-adv-x="937" d="M66 379v256q0 177 114 286q113 109 291 109q181 0 295 -108q115 -109 115 -287v-170q0 -12 -10 -22q-9 -9 -21 -9h-518q-21 0 -21 -20v-35q0 -89 50 -139t145 -50q75 0 133 46q21 16 41 2l131 -101q26 -22 2 -45q-121 -108 -307 -108q-198 0 -319 109t-121 286zM311 618 q0 -22 21 -22h282q21 0 21 22v19q0 90 -42 138t-118 48q-164 0 -164 -186v-19z" />
<glyph unicode="f" horiz-adv-x="608" d="M10 883v102q0 29 31 29h92q21 0 21 22v156q0 124 75 190q77 68 213 68q129 0 234 -57q12 -4 15 -17q3 -12 -3 -24l-65 -119q-12 -27 -41 -12q-45 24 -90 24q-86 0 -86 -80v-129q0 -22 20 -22h170q29 0 29 -29v-102q0 -31 -29 -31h-170q-20 0 -20 -21v-802q0 -29 -31 -29 h-193q-9 0 -19 8q-9 7 -9 21v802q0 21 -21 21h-92q-31 0 -31 31z" />
<glyph unicode="g" d="M66 377v258q0 178 95 285q94 106 242 106q134 0 230 -90q4 -4 11 -3q8 2 9 7l13 51q6 23 30 23h160q29 0 29 -29v-1073q0 -182 -119 -292q-118 -109 -320 -109q-145 0 -266 67q-24 15 -12 41l61 121q17 27 41 12q73 -39 160 -39q100 0 153 55q52 53 52 150v156q0 8 -8 10 q-9 2 -15 -4q-89 -92 -213 -92q-151 0 -242 104t-91 285zM309 385q0 -88 45 -139t123 -51q73 0 131 47q27 21 27 57v410q0 38 -27 59q-59 49 -133 49q-76 0 -121 -50q-45 -49 -45 -138v-244z" />
<glyph unicode="h" horiz-adv-x="970" d="M92 29v1388q0 29 31 29h192q29 0 29 -29v-467q0 -8 8 -11q9 -3 15 3q90 84 221 84q141 0 219 -91t78 -261v-645q0 -29 -29 -29h-192q-29 0 -29 29v639q0 141 -133 141q-78 0 -133 -49q-25 -22 -25 -51v-680q0 -29 -29 -29h-192q-31 0 -31 29z" />
<glyph unicode="i" horiz-adv-x="436" d="M88 1286q0 55 38 93t93 38q52 0 92 -38q39 -37 39 -93q0 -54 -38 -92q-37 -37 -93 -37t-93 37q-38 38 -38 92zM92 29v956q0 14 9 21q10 8 20 8h192q31 0 31 -29v-956q0 -29 -31 -29h-192q-10 0 -20 8q-9 7 -9 21z" />
<glyph unicode="j" horiz-adv-x="440" d="M-215 -367l70 125q10 22 32 15q54 -19 97 -19q61 0 94 36t33 93v1102q0 29 28 29h193q28 0 28 -29v-1100q0 -144 -89 -242t-240 -98q-126 0 -232 47q-29 11 -14 41zM104 1286q0 56 39 93q40 38 93 38q52 0 92 -38q39 -37 39 -93q0 -54 -38 -92q-37 -37 -93 -37 q-57 0 -94 37q-38 38 -38 92z" />
<glyph unicode="k" horiz-adv-x="931" d="M92 29v1388q0 29 29 29h192q31 0 31 -29v-842q0 -25 25 -20q100 16 160 85q62 71 69 177l12 170q2 27 29 27h201q11 0 21 -8q9 -7 7 -23l-16 -174q-18 -211 -180 -328q-14 -10 -4 -26l243 -410q10 -14 2 -30q-7 -15 -26 -15h-215q-19 0 -29 16l-180 344q-6 17 -27 13 q-28 -9 -74 -13q-18 0 -18 -20v-311q0 -29 -31 -29h-192q-29 0 -29 29z" />
<glyph unicode="l" horiz-adv-x="436" d="M92 29v1388q0 29 31 29h192q29 0 29 -29v-1388q0 -29 -29 -29h-192q-31 0 -31 29z" />
<glyph unicode="m" horiz-adv-x="1501" d="M92 29v956q0 29 31 29h162q20 0 26 -19l15 -53q2 -7 9 -8q7 -2 13 4q94 88 227 88q174 0 246 -127q12 -20 27 -2q100 129 266 129q143 0 222 -91t79 -261v-645q0 -29 -29 -29h-194q-10 0 -20 8q-9 7 -9 21v639q0 141 -131 141q-73 0 -133 -66q-22 -23 -22 -61v-653 q0 -29 -29 -29h-193q-28 0 -28 29v639q0 141 -131 141q-72 0 -127 -45q-25 -19 -25 -53v-682q0 -29 -29 -29h-192q-31 0 -31 29z" />
<glyph unicode="n" horiz-adv-x="970" d="M92 29v956q0 29 31 29h162q22 0 28 -19l13 -55q2 -7 9 -8q7 -2 13 4q102 90 236 90q143 0 222 -91t79 -261v-645q0 -29 -29 -29h-192q-29 0 -29 29v639q0 141 -133 141q-80 0 -133 -47q-25 -22 -25 -53v-680q0 -29 -29 -29h-192q-31 0 -31 29z" />
<glyph unicode="o" horiz-adv-x="974" d="M66 377v260q0 173 119 283t302 110q184 0 304 -110t120 -283v-260q0 -172 -120 -282q-121 -111 -304 -111q-182 0 -302 111q-119 110 -119 282zM311 377q0 -86 47 -136q48 -51 129 -51t130 51t49 136v260q0 85 -49 136q-48 50 -130 50t-129 -50t-47 -136v-260z" />
<glyph unicode="p" horiz-adv-x="980" d="M92 -406v1391q0 14 9 21q10 8 20 8h162q22 0 28 -21l13 -49q4 -21 22 -6q88 88 217 88q147 0 248 -107q102 -108 102 -284v-258q0 -183 -96 -286t-244 -103q-122 0 -208 80q-6 6 -14 3q-7 -3 -7 -12v-465q0 -28 -31 -28h-192q-11 0 -20 9t-9 19zM344 299q0 -38 25 -57 q61 -47 131 -47q78 0 124 51q46 50 46 139v244q0 89 -46 138q-47 50 -122 50q-81 0 -133 -49q-25 -23 -25 -57v-412z" />
<glyph unicode="q" d="M66 377v258q0 178 95 285q94 106 242 106q142 0 230 -88q6 -6 12 -4t8 8l13 49q6 23 30 23h160q29 0 29 -29v-1391q0 -28 -29 -28h-192q-29 0 -29 28v474q0 8 -7 11q-8 3 -16 -3q-88 -88 -213 -88q-151 0 -242 104t-91 285zM309 385q0 -88 45 -139t123 -51q69 0 131 47 q27 21 27 57v414q0 36 -27 57q-58 47 -133 47q-76 0 -121 -50q-45 -49 -45 -138v-244z" />
<glyph unicode="r" horiz-adv-x="710" d="M92 29v956q0 29 31 29h162q22 0 28 -19l13 -49q2 -7 9 -8q7 -2 13 4q79 82 195 82q75 0 149 -39q24 -13 13 -37l-66 -147q-12 -28 -41 -13q-45 21 -88 21q-78 0 -139 -51q-27 -21 -27 -60v-669q0 -29 -29 -29h-192q-31 0 -31 29z" />
<glyph unicode="s" horiz-adv-x="739" d="M74 115l82 125q6 11 19 12q15 2 22 -4q77 -55 159 -55q58 0 87 26q30 27 30 66v16q0 48 -31 76q-28 26 -112 59q-127 51 -187 109q-61 60 -61 178v18q0 129 91 208t235 79q129 0 235 -74q25 -17 8 -41l-80 -125q-15 -24 -43 -6q-55 35 -106 35q-45 0 -69 -23 q-25 -24 -25 -57v-14q0 -44 29 -67q28 -22 112 -56q128 -50 188 -108q62 -60 62 -181v-26q0 -127 -92 -214q-91 -87 -248 -87q-172 0 -299 90q-24 17 -6 41z" />
<glyph unicode="t" horiz-adv-x="671" d="M2 883v102q0 29 29 29h94q20 0 20 20v234q0 30 29 30h193q12 0 21 -9t9 -21v-234q0 -20 21 -20h170q28 0 28 -29v-102q0 -31 -28 -31h-170q-21 0 -21 -21v-552q0 -42 23 -63q22 -21 59 -21q39 0 84 24q28 15 43 -10l64 -125q15 -28 -13 -43q-108 -53 -225 -53 q-287 0 -287 260v583q0 21 -20 21h-94q-29 0 -29 31z" />
<glyph unicode="u" horiz-adv-x="962" d="M84 342v643q0 29 31 29h192q29 0 29 -29v-639q0 -141 131 -141q75 0 127 47q24 21 24 53v680q0 13 10 21t19 8h193q30 0 30 -29v-956q0 -29 -30 -29h-162q-21 0 -27 18l-14 56q-2 7 -9 8q-8 2 -12 -4q-100 -92 -233 -92q-143 0 -221 92t-78 264z" />
<glyph unicode="v" horiz-adv-x="923" d="M27 979q-4 11 3 23q8 12 21 12h187q30 0 36 -27l179 -645q1 -10 12 -10t12 10l180 645q6 27 35 27h189q13 0 21 -12q7 -12 3 -23l-299 -954q-6 -25 -33 -25h-215q-26 0 -32 25z" />
<glyph unicode="w" horiz-adv-x="1292" d="M35 981q-2 16 5 24q8 9 19 9h193q29 0 37 -29l131 -614q0 -7 4 -10t8 -3q3 0 7 2q3 2 5 9l164 424q7 22 33 22h14q26 0 33 -22l164 -424q5 -9 13 -9q10 0 12 11l131 614q6 29 36 29h193q11 0 19 -9t6 -24l-228 -954q-6 -27 -35 -27h-161q-27 0 -35 25l-141 350 q-2 8 -15 8q-10 0 -12 -8l-141 -350q-8 -25 -35 -25h-162q-29 0 -35 27z" />
<glyph unicode="x" horiz-adv-x="921" d="M26 12q-7 12 1 25l292 475q6 12 0 27l-260 438q-8 13 -1 24q8 13 22 13h199q25 0 36 -21l138 -254q6 -8 14 -8t14 8l137 254q10 21 37 21h201q14 0 22 -13q7 -11 -1 -24l-261 -438q-6 -15 0 -27l291 -475q8 -13 2 -25t-20 -12h-203q-25 0 -35 20l-168 295q-6 11 -16 11 t-16 -11l-166 -295q-10 -20 -37 -20h-201q-13 0 -21 12z" />
<glyph unicode="y" horiz-adv-x="927" d="M25 977q-5 12 3 24q8 13 21 13h187q24 0 36 -25l187 -581q2 -9 12 -9t12 9l187 581q11 25 35 25h182q14 0 21 -10t3 -25l-465 -1387q-6 -26 -36 -26h-166q-14 0 -21 11q-8 13 -4 26l133 399q8 22 0 45z" />
<glyph unicode="z" horiz-adv-x="819" d="M33 29v8q0 19 8 35l397 725q6 11 0 23q-6 11 -20 11h-299q-13 0 -21 10t-8 19v125q0 29 29 29h631q28 0 28 -29v-8q0 -15 -8 -33l-397 -729q-5 -9 -1 -21t19 -12h344q29 0 29 -28v-125q0 -29 -29 -29h-674q-28 0 -28 29z" />
<glyph unicode="{" horiz-adv-x="626" d="M135 702q-22 22 0 43q109 97 109 232v524q0 193 164 283q12 6 26 0l129 -60q35 -18 8 -45q-84 -79 -84 -217v-485q0 -142 -106 -238q-6 -6 -6 -16q0 -9 8 -14q104 -104 104 -240v-485q0 -139 84 -217q11 -8 9 -24t-17 -22l-121 -57q-18 -12 -34 0q-164 90 -164 281v524 q0 130 -109 233z" />
<glyph unicode="|" horiz-adv-x="473" d="M174 -289v2026q0 9 8 19q8 9 21 9h67q13 0 22 -9t9 -19v-2026q0 -30 -31 -30h-67q-29 0 -29 30z" />
<glyph unicode="}" horiz-adv-x="626" d="M71 -259q-3 14 7 26q86 78 86 215v487q0 142 106 238q15 18 -2 30q-104 98 -104 240v485q0 137 -86 217q-10 10 -7 25q3 14 15 20l123 58q18 11 35 0q162 -90 162 -281v-524q0 -130 110 -234q18 -22 0 -43q-110 -98 -110 -231v-524q0 -195 -162 -283q-14 -6 -29 0 l-129 59q-12 6 -15 20z" />
<glyph unicode="~" horiz-adv-x="1095" d="M90 500q-21 32 4 57q117 127 277 127q55 0 101 -13q48 -13 69 -24q18 -9 67 -39q92 -53 164 -53q96 0 176 80q14 11 35 10q20 -1 31 -18l33 -49q18 -29 -5 -58q-133 -133 -288 -133q-32 0 -56 4q-36 6 -44 8q-18 5 -42 15t-33 15q-5 2 -33 20q-23 14 -30 16 q-88 51 -162 51q-90 0 -170 -74q-10 -10 -31 -7q-23 3 -30 18z" />
<glyph unicode="&#xa1;" horiz-adv-x="522" d="M117 883q0 59 42 100q43 41 101 41t102 -41t44 -100q0 -63 -42 -103q-43 -41 -104 -41q-58 0 -101 41q-42 40 -42 103zM135 -403v950q0 28 31 28h190q31 0 31 -28v-950q0 -31 -29 -31h-192q-31 0 -31 31z" />
<glyph unicode="&#xa2;" horiz-adv-x="759" d="M66 373v264q0 153 98 261q99 109 256 130v162q0 29 29 29h49q11 0 21 -10q9 -9 9 -19v-160q95 -8 179 -57q27 -17 12 -41l-68 -131q-15 -28 -39 -13q-53 35 -125 35q-80 0 -128 -53q-48 -52 -48 -135v-258q0 -81 48 -134t128 -53q61 0 125 35q27 15 39 -14l66 -131 q11 -27 -12 -39q-78 -47 -177 -57v-177q0 -30 -30 -30h-49q-29 0 -29 30v179q-160 21 -257 130t-97 257z" />
<glyph unicode="&#xa3;" horiz-adv-x="933" d="M41 664v110q0 31 31 31h80q20 0 20 22l-16 234q-15 178 95 291q109 112 304 112q149 0 272 -65q22 -10 15 -37l-58 -135q-5 -14 -15 -18q-13 -5 -24 1q-68 37 -155 37t-137 -53q-49 -52 -43 -139l14 -230q0 -20 20 -20h148q31 0 31 -31v-110q0 -29 -31 -29h-133 q-23 0 -23 -25l10 -176q8 -96 -49 -178q-5 -10 -1 -20q5 -11 18 -11h436q31 0 31 -30v-166q0 -29 -31 -29h-725q-29 0 -29 29v118q0 19 15 37q99 104 88 226l-13 204q0 21 -22 21h-92q-31 0 -31 29z" />
<glyph unicode="&#xa5;" horiz-adv-x="1120" d="M31 1407q-6 15 2 27q7 12 22 12h195q28 0 39 -25l260 -626q2 -9 12 -9h4q8 0 10 9l263 626q11 25 36 25h203q17 0 25 -12t0 -27l-338 -774h178q13 0 22 -9t9 -22v-63q0 -29 -31 -29h-231l-11 -23q-12 -28 -12 -55v-84h254q13 0 22 -9t9 -20v-63q0 -13 -9 -22t-22 -9h-254 v-188q0 -17 -11 -27t-26 -10h-178q-17 0 -27 10t-10 27v188h-246q-12 0 -21 11q-9 10 -9 20v63q0 11 9 20t21 9h246v84q0 26 -10 55l-10 23h-226q-12 0 -21 9t-9 22v61q0 13 9 22t21 9h172z" />
<glyph unicode="&#xa6;" horiz-adv-x="473" d="M174 -289v879q0 9 8 19q8 9 21 9h67q13 0 22 -9t9 -19v-879q0 -30 -31 -30h-67q-29 0 -29 30zM174 858v879q0 9 8 19q8 9 21 9h67q13 0 22 -9t9 -19v-879q0 -31 -31 -31h-67q-29 0 -29 31z" />
<glyph unicode="&#xa7;" horiz-adv-x="1089" d="M127 553v12q0 157 135 240q3 1 5 9q1 6 -5 11q-102 84 -102 238v37q0 170 112 269q113 99 299 99q176 0 316 -104q21 -21 4 -39l-107 -139q-18 -21 -41 -4q-79 57 -170 57q-79 0 -126 -36q-46 -36 -46 -101v-35q0 -67 50 -106q50 -40 186 -74q176 -44 260 -111 q84 -68 84 -196v-13q0 -147 -135 -233q-15 -11 0 -23q121 -84 121 -245v-50q0 -174 -118 -279q-120 -106 -323 -106q-213 0 -381 129q-24 21 -6 41l109 142q5 8 16 9t23 -7q112 -86 237 -86q98 0 147 42q50 42 50 115v45q0 71 -53 106q-49 32 -199 71q-186 45 -264 111 t-78 204zM371 598q0 -73 38 -111q36 -36 136 -63q47 -14 110 -29q25 -6 41 13q43 49 43 112v12q0 68 -34 102q-32 32 -127 60q-20 6 -41 12.5t-44 13t-34 9.5q-23 6 -45 -12q-43 -40 -43 -109v-10z" />
<glyph unicode="&#xa8;" horiz-adv-x="409" d="M-84 1282q0 44 32 78q32 33 79 33q44 0 76 -32t32 -79t-32 -79t-76 -32q-48 0 -79 33q-32 34 -32 78zM272 1282q0 44 32 78q31 33 79 33q45 0 77 -32t32 -79t-32 -79t-77 -32q-47 0 -79 33q-32 34 -32 78z" />
<glyph unicode="&#xa9;" horiz-adv-x="1548" d="M123 725q0 288 185 470q186 183 468 183q281 0 465 -184t184 -469t-184 -468q-185 -183 -465 -183q-282 0 -468 183q-185 182 -185 468zM188 725q0 -259 166 -422q167 -164 422 -164q251 0 418 164q166 163 166 422q0 258 -166 423t-418 165q-255 0 -421 -165 q-167 -165 -167 -423zM338 686v80q0 196 127 320t328 124q152 0 274 -86q16 -12 4 -28l-72 -95q-20 -18 -34 -4q-70 58 -172 58q-130 0 -203 -79q-74 -80 -74 -210v-80q0 -130 74 -209q73 -78 203 -78q100 0 170 56q18 12 32 -4l76 -97q12 -16 -4 -28q-113 -82 -274 -82 q-202 0 -329 122q-126 122 -126 320z" />
<glyph unicode="&#xaa;" horiz-adv-x="872" d="M94 946v189q0 155 81 240t206 85q103 0 188 -74q10 -10 17 3l10 41q6 18 27 18h127q24 0 24 -25v-764q0 -26 -24 -26h-154q-27 0 -27 26v31q0 6 -5 8t-9 -2q-83 -73 -180 -73q-127 0 -204 87q-77 88 -77 236zM293 952q0 -77 38 -118t105 -41q61 0 113 41q20 14 20 45v321 q0 31 -20 47q-44 43 -111 43t-106 -42t-39 -118v-178z" />
<glyph unicode="&#xab;" horiz-adv-x="886" d="M82 512q0 10 6 20l227 318q10 16 29 16h94q12 0 17 -9q4 -9 -2 -17l-191 -314q-4 -5 -4 -14t4 -14l191 -314q6 -8 2 -17q-5 -9 -17 -9h-94q-19 0 -29 16l-227 318q-6 8 -6 20zM430 512q0 10 6 20l228 318q10 16 28 16h94q12 0 17 -9q4 -9 -2 -17l-191 -314q-4 -5 -4 -14 t4 -14l191 -314q6 -8 2 -17q-5 -9 -17 -9h-94q-18 0 -28 16l-228 318q-6 8 -6 20z" />
<glyph unicode="&#xac;" horiz-adv-x="1173" d="M102 842v123q0 28 31 28h907q13 0 22 -9t9 -19v-484q0 -10 -9 -19t-22 -9h-133q-13 0 -20 9q-8 10 -8 19v312q0 20 -23 20h-723q-31 0 -31 29z" />
<glyph unicode="&#xad;" horiz-adv-x="659" d="M76 444v131q0 11 9 20t19 9h449q12 0 21 -9q10 -10 10 -20v-131q0 -9 -10 -19q-9 -9 -21 -9h-449q-10 0 -19 9t-9 19z" />
<glyph unicode="&#xae;" horiz-adv-x="1042" d="M82 1040q0 192 125 317q124 124 315 124q190 0 314 -124q125 -125 125 -317q0 -191 -125 -316q-124 -124 -314 -124q-191 0 -315 124q-125 125 -125 316zM143 1040q0 -166 108 -272q107 -106 271 -106q163 0 270 106t107 272q0 167 -107 273t-270 106q-164 0 -271 -106 q-108 -107 -108 -273zM324 786v523q0 16 16 16h227q72 0 120 -49q48 -50 48 -123v-6q0 -111 -104 -156q-12 -5 -8 -18q27 -107 131 -113q14 -4 14 -18v-62q0 -16 -16 -16q-89 0 -153 53q-63 52 -81 146q-4 14 -14 14h-60q-12 0 -12 -14v-177q0 -16 -18 -16h-74q-16 0 -16 16 zM432 1073q0 -10 12 -10h95q37 0 59 21q23 21 23 59v6q0 37 -23 58q-24 22 -61 22h-93q-12 0 -12 -15v-141z" />
<glyph unicode="&#xaf;" horiz-adv-x="819" d="M123 1219v98q0 31 31 31h514q30 0 30 -31v-98q0 -13 -9 -22t-21 -9h-514q-13 0 -22 9t-9 22z" />
<glyph unicode="&#xb0;" horiz-adv-x="518" d="M31 1243q0 99 64 160t163 61t164 -61t65 -160q0 -97 -65 -158t-164 -61t-163 61t-64 158zM145 1243q0 -53 31 -84t82 -31q52 0 83 31q30 30 30 84q0 56 -30 86q-31 31 -83 31q-51 0 -82 -31t-31 -86z" />
<glyph unicode="&#xb1;" horiz-adv-x="1173" d="M102 248v123q0 8 9 19q7 9 20 9h909q13 0 22 -9t9 -19v-121q0 -10 -9 -21q-9 -10 -22 -10h-909q-13 0 -20 9q-9 11 -9 20zM102 848v119q0 30 31 30h342q23 0 23 21v278q0 13 9 22t19 9h123q11 0 20 -9t9 -22v-278q0 -21 22 -21h342q11 0 20 -9t9 -21v-121q0 -14 -9 -21 q-10 -8 -20 -8h-342q-22 0 -22 -20v-279q0 -12 -9 -20q-11 -9 -20 -9h-123q-8 0 -19 9q-9 7 -9 20v279q0 20 -23 20h-342q-31 0 -31 31z" />
<glyph unicode="&#xb2;" horiz-adv-x="681" d="M72 815v76q0 15 12 39l281 405q57 79 57 140v18q0 47 -31 75q-30 27 -84 27q-63 0 -114 -26q-28 -15 -43 14l-39 94q-10 22 14 37q90 51 194 51q136 0 213 -70q78 -71 78 -192v-24q0 -91 -96 -226l-184 -264q-7 -10 -3 -21q5 -12 19 -12h221q29 0 29 -30v-111 q0 -31 -29 -31h-465q-30 0 -30 31z" />
<glyph unicode="&#xb3;" horiz-adv-x="675" d="M86 862l39 96q11 25 41 15q59 -31 121 -31q60 0 98 35q37 34 37 90v16q0 54 -34 85q-35 32 -93 32q-44 0 -92 -16q-21 -7 -35 10l-21 27q-10 15 3 34l198 293q8 11 2 23t-20 12h-189q-30 0 -30 29v112q0 11 9 20t21 9h428q13 0 22 -9t9 -20v-84q0 -21 -14 -38l-197 -261 q99 -10 160 -79q61 -68 61 -177v-24q0 -121 -85 -205t-228 -84q-98 0 -199 53q-22 15 -12 37z" />
<glyph unicode="&#xb4;" horiz-adv-x="819" d="M185 1196q-1 13 12 25l264 213q24 21 49 4l111 -64q14 -7 14 -23t-14 -26l-299 -195q-24 -15 -48 -2l-75 46q-13 8 -14 22z" />
<glyph unicode="&#xb5;" horiz-adv-x="966" d="M90 -406v1391q0 14 9 21q10 8 20 8h194q29 0 29 -29v-692q0 -31 20 -51q39 -39 109 -39q75 0 127 47q25 22 25 53v682q0 14 9 21q10 8 19 8h193q30 0 30 -29v-956q0 -29 -30 -29h-164q-26 0 -27 18l-12 52q-2 6 -8 8t-12 -4q-74 -74 -162 -74q-55 0 -94 27q-7 5 -15 0 t-8 -13v-420q0 -28 -31 -28h-192q-10 0 -20 8q-9 8 -9 20z" />
<glyph unicode="&#xb6;" horiz-adv-x="1536" d="M59 995v23q0 191 128 310q127 118 335 118h918q10 0 19 -9t9 -20v-168q0 -13 -9 -20q-10 -8 -19 -8h-111q-22 0 -22 -23v-1169q0 -29 -29 -29h-195q-28 0 -28 29v1169q0 23 -21 23h-235q-21 0 -21 -23v-1169q0 -29 -30 -29h-193q-29 0 -29 29v532q0 9 -7 16t-15 7 q-203 5 -323 114q-122 111 -122 297zM305 995q0 -200 199 -200q22 0 22 22v381q0 8 -7 15q-8 8 -15 8q-93 0 -147 -52q-52 -51 -52 -151v-23z" />
<glyph unicode="&#xb7;" horiz-adv-x="452" d="M84 727q0 59 42 100q43 41 101 41q60 0 101 -41t41 -100q0 -58 -41 -99q-40 -40 -101 -40q-60 0 -101 40q-42 40 -42 99z" />
<glyph unicode="&#xb8;" horiz-adv-x="819" d="M201 -444l20 45q12 23 41 12q52 -23 100 -23q138 0 138 97v20q0 38 -34 62t-97 24q-52 0 -107 -24q-17 -11 -29 6l-8 12q-10 14 -2 27l113 186h121l-45 -76q-12 -22 14 -26q95 -6 153 -56q56 -49 56 -131v-28q0 -94 -73 -152q-72 -57 -189 -57q-76 0 -160 41 q-24 15 -12 41z" />
<glyph unicode="&#xb9;" horiz-adv-x="487" d="M106 1585q-7 15 0 29l74 125q10 14 29 14h115q10 0 19 -9t9 -20v-909q0 -12 -9 -21q-10 -10 -19 -10h-127q-12 0 -22 10q-9 9 -9 21v733q0 23 -21 23h-14q-18 0 -25 14z" />
<glyph unicode="&#xba;" horiz-adv-x="886" d="M94 950v180q0 146 97 237t253 91q154 0 251 -91q98 -92 98 -237v-180q0 -147 -98 -237q-97 -90 -251 -90q-158 0 -254 90t-96 237zM293 950q0 -74 40 -115q40 -42 111 -42q68 0 108 42q40 41 40 115v180q0 74 -40 117t-108 43q-70 0 -110 -43q-41 -44 -41 -117v-180z" />
<glyph unicode="&#xbb;" horiz-adv-x="886" d="M88 167q-4 9 2 17l191 314q4 5 4 14t-4 14l-191 314q-6 8 -2 17t16 9h97q18 0 28 -16l228 -318q6 -10 6 -20q0 -12 -6 -20l-228 -318q-10 -16 -28 -16h-97q-12 0 -16 9zM436 167q-4 9 2 17l193 314q4 5 4 14t-4 14l-193 314q-6 8 -2 17t17 9h96q19 0 29 -16l227 -318 q6 -10 6 -20q0 -12 -6 -20l-227 -318q-10 -16 -29 -16h-96q-13 0 -17 9z" />
<glyph unicode="&#xbc;" horiz-adv-x="1431" d="M94 1278q-7 14 0 29l76 125q6 14 27 14h114q13 0 21 -9q8 -10 8 -20v-909q0 -31 -29 -31h-127q-10 0 -19 9t-9 22v733q0 23 -21 23h-16q-18 0 -25 14zM272 39l621 1378q11 29 41 29h108q18 0 25 -12q8 -13 4 -27l-620 -1378q-11 -29 -41 -29h-109q-17 0 -26 12t-3 27z M764 268v64q0 20 12 37l340 583q11 17 27 17h110q13 0 21 -10t8 -19v-528q0 -21 21 -21h43q28 0 28 -31v-92q0 -28 -28 -28h-43q-21 0 -21 -21v-188q0 -31 -29 -31h-127q-28 0 -28 31v188q0 21 -23 21h-280q-31 0 -31 28zM963 400q5 -9 18 -9h94q23 0 23 21v170q0 12 -13 15 q-12 3 -18 -9l-102 -170q-7 -8 -2 -18z" />
<glyph unicode="&#xbd;" horiz-adv-x="1523" d="M94 1278q-7 14 0 29l76 125q6 14 27 14h114q13 0 21 -9q8 -10 8 -20v-909q0 -31 -29 -31h-127q-10 0 -19 9t-9 22v733q0 23 -21 23h-16q-18 0 -25 14zM272 39l621 1378q11 29 41 29h108q18 0 25 -12q8 -13 4 -27l-620 -1378q-11 -29 -41 -29h-109q-18 0 -25 11 q-8 13 -4 28zM913 31v75q0 19 13 39l280 406q58 85 58 137v19q0 46 -31 75t-84 29q-63 0 -115 -29q-28 -10 -43 17l-39 92q-10 26 15 37q95 53 194 53q135 0 213 -72t78 -192v-23q0 -87 -98 -227l-183 -262q-7 -10 -3 -22q4 -11 20 -11h221q29 0 29 -31v-110q0 -31 -29 -31 h-465q-31 0 -31 31z" />
<glyph unicode="&#xbe;" horiz-adv-x="1613" d="M96 555l39 96q13 30 41 15q59 -31 121 -31q60 0 98 35q37 34 37 90v16q0 54 -34 85q-35 32 -91 32q-46 0 -94 -16q-21 -7 -35 10l-20 26q-11 17 4 35l196 293q8 11 2 23t-20 12h-188q-29 0 -29 29v112q0 10 8 20q8 9 21 9h428q30 0 30 -29v-84q0 -25 -14 -39l-195 -260 q98 -10 160 -80t62 -176v-24q0 -121 -86 -205q-85 -84 -230 -84q-97 0 -198 53q-24 13 -13 37zM475 39l619 1378q12 29 43 29h108q17 0 25 -12q9 -12 4 -27l-621 -1378q-11 -29 -43 -29h-106q-17 0 -26 12t-3 27zM948 268v64q0 21 10 37l340 583q11 17 29 17h109 q30 0 30 -29v-528q0 -21 21 -21h43q29 0 29 -31v-92q0 -28 -29 -28h-43q-21 0 -21 -21v-188q0 -31 -30 -31h-125q-29 0 -29 31v188q0 21 -22 21h-281q-31 0 -31 28zM1147 400q5 -9 16 -9h97q22 0 22 21v170q0 12 -12 15q-13 3 -19 -9l-104 -170q-5 -8 0 -18z" />
<glyph unicode="&#xbf;" horiz-adv-x="868" d="M41 -51q0 107 46 180q47 73 138 150q73 64 101 115q28 52 28 128v29q0 29 31 29h180q29 0 29 -31v-27q0 -117 -41 -196q-40 -76 -127 -156q-73 -64 -100 -105q-31 -48 -31 -108v-20q0 -69 45 -110q44 -40 127 -40q99 0 182 63q25 18 43 -6l107 -139q18 -23 -6 -41 q-154 -115 -340 -115q-187 0 -299 102q-113 102 -113 265v33zM330 883q0 59 42 101t101 42t102 -42t43 -101q0 -60 -43 -102t-102 -42t-101 42t-42 102z" />
<glyph unicode="&#xc0;" horiz-adv-x="1118" d="M27 37l469 1386q6 23 32 23h78q27 0 33 -23l461 -1386q4 -14 -5 -26q-8 -11 -24 -11h-186q-31 0 -37 25l-60 184q-11 29 -38 29h-367q-28 0 -39 -29l-57 -184q-8 -25 -37 -25h-195q-15 0 -23 11q-9 12 -5 26zM343 1782q2 17 15 24l109 64q27 14 49 -4l264 -213 q13 -12 12 -25q-1 -14 -14 -22l-73 -45q-27 -10 -50 2l-299 194q-15 7 -13 25zM418 446q-4 -20 14 -20h268q22 0 15 20l-135 424q-2 11 -13 11q-12 0 -14 -11z" />
<glyph unicode="&#xc1;" horiz-adv-x="1118" d="M27 37l469 1386q6 23 32 23h78q27 0 33 -23l461 -1386q4 -14 -5 -26q-8 -11 -24 -11h-186q-31 0 -37 25l-60 184q-11 29 -38 29h-367q-28 0 -39 -29l-57 -184q-8 -25 -37 -25h-195q-15 0 -23 11q-9 12 -5 26zM341 1628q-1 14 11 25l264 213q25 21 50 4l110 -64 q15 -8 15 -23t-15 -26l-299 -194q-23 -15 -47 -2l-76 45q-12 7 -13 22zM418 446q-4 -20 14 -20h268q22 0 15 20l-135 424q-2 11 -13 11q-12 0 -14 -11z" />
<glyph unicode="&#xc2;" horiz-adv-x="1118" d="M27 37l469 1386q6 23 32 23h78q27 0 33 -23l461 -1386q4 -14 -5 -26q-8 -11 -24 -11h-186q-31 0 -37 25l-60 184q-11 29 -38 29h-367q-28 0 -39 -29l-57 -184q-8 -25 -37 -25h-195q-15 0 -23 11q-9 12 -5 26zM271 1641q-2 15 10 22l270 192q7 5 16 5q10 0 17 -5l270 -192 q11 -6 9 -22t-11 -23l-70 -43q-15 -10 -32 0l-170 104q-6 2 -13 2q-6 0 -12 -2l-170 -104q-18 -11 -33 0l-69 43q-10 7 -12 23zM418 446q-4 -20 14 -20h268q22 0 15 20l-135 424q-2 11 -13 11q-12 0 -14 -11z" />
<glyph unicode="&#xc3;" horiz-adv-x="1118" d="M27 37l469 1386q6 23 32 23h78q27 0 33 -23l461 -1386q4 -14 -5 -26q-8 -11 -24 -11h-186q-31 0 -37 25l-60 184q-11 29 -38 29h-367q-28 0 -39 -29l-57 -184q-8 -25 -37 -25h-195q-15 0 -23 11q-9 12 -5 26zM262 1710q-12 17 4 33q68 80 176 80q76 0 144 -41 q59 -31 96 -31q55 0 104 37q21 16 39 -8l45 -72q12 -21 -4 -35q-74 -84 -184 -84q-69 0 -143 41q-54 31 -97 31q-46 0 -96 -35q-21 -15 -39 10zM418 446q-4 -20 14 -20h268q22 0 15 20l-135 424q-2 11 -13 11q-12 0 -14 -11z" />
<glyph unicode="&#xc4;" horiz-adv-x="1118" d="M27 37l469 1386q6 23 32 23h78q27 0 33 -23l461 -1386q4 -14 -5 -26q-8 -11 -24 -11h-186q-31 0 -37 25l-60 184q-11 29 -38 29h-367q-28 0 -39 -29l-57 -184q-8 -25 -37 -25h-195q-15 0 -23 11q-9 12 -5 26zM279 1714q0 48 32 79q34 32 78 32q45 0 77 -32t32 -79 t-32 -79q-31 -31 -77 -31t-78 31t-32 79zM418 446q-4 -20 14 -20h268q22 0 15 20l-135 424q-2 11 -13 11q-12 0 -14 -11zM635 1714q0 48 33 79q34 32 77 32q45 0 77 -32t32 -79t-32 -79q-31 -31 -77 -31q-45 0 -77 31q-33 32 -33 79z" />
<glyph unicode="&#xc5;" horiz-adv-x="1118" d="M27 37l469 1386q6 23 32 23h78q27 0 33 -23l461 -1386q4 -14 -5 -26q-8 -11 -24 -11h-186q-31 0 -37 25l-60 184q-11 29 -38 29h-367q-28 0 -39 -29l-57 -184q-8 -25 -37 -25h-195q-15 0 -23 11q-9 12 -5 26zM385 1714q0 78 52 127t130 49t130 -49q53 -50 53 -127 t-53 -127q-52 -49 -130 -49t-130 49t-52 127zM418 446q-4 -20 14 -20h268q22 0 15 20l-135 424q-2 11 -13 11q-12 0 -14 -11zM483 1714q0 -86 84 -86t84 86t-84 86t-84 -86z" />
<glyph unicode="&#xc6;" horiz-adv-x="1439" d="M31 37l467 1386q11 23 34 23h822q12 0 21 -9t9 -20v-168q0 -28 -30 -28h-623q-7 0 -12 -8q-5 -7 0 -15l115 -356q8 -19 28 -19h346q13 0 22 -9t9 -21v-148q0 -29 -31 -29h-276q-18 0 -14 -24l114 -346q4 -21 27 -21h295q12 0 21 -9t9 -19v-168q0 -29 -30 -29h-465 q-31 0 -39 25l-59 184q-11 29 -39 29h-365q-28 0 -39 -29l-59 -184q-8 -25 -37 -25h-195q-15 0 -23 11q-9 12 -3 26zM422 446q-7 -20 14 -20h269q18 0 14 20l-135 424q-5 11 -15 11q-9 0 -14 -11z" />
<glyph unicode="&#xc7;" horiz-adv-x="983" d="M82 510v430q0 236 146 379t380 143q170 0 310 -92q27 -12 10 -41l-92 -143q-18 -27 -41 -10q-85 53 -183 53q-127 0 -200 -78q-74 -79 -74 -211v-430q0 -138 73 -217q72 -78 201 -78q99 0 185 57q24 15 41 -10l94 -145q15 -22 -10 -41q-128 -86 -287 -92l-35 -60 q-12 -22 14 -26q95 -6 153 -56q56 -49 56 -131v-28q0 -95 -72 -152t-190 -57q-76 0 -160 41q-24 15 -12 41l21 45q12 23 41 12q52 -23 100 -23q137 0 137 97v20q0 38 -34 62t-97 24q-51 0 -106 -24q-17 -11 -29 6l-8 12q-10 14 -2 27l106 176q-199 28 -318 167 q-118 137 -118 353z" />
<glyph unicode="&#xc8;" horiz-adv-x="948" d="M115 29v1388q0 10 8 20q7 9 20 9h715q13 0 22 -9t9 -20v-168q0 -28 -31 -28h-471q-20 0 -20 -21v-358q0 -19 20 -19h315q31 0 31 -30v-148q0 -29 -31 -29h-315q-20 0 -20 -22v-348q0 -21 20 -21h471q13 0 22 -9t9 -19v-168q0 -29 -31 -29h-715q-28 0 -28 29zM286 1782 q2 17 15 24l109 64q27 14 49 -4l264 -213q12 -11 11 -25q-1 -15 -13 -22l-74 -45q-26 -10 -49 2l-299 194q-15 7 -13 25z" />
<glyph unicode="&#xc9;" horiz-adv-x="948" d="M115 29v1388q0 10 8 20q7 9 20 9h715q13 0 22 -9t9 -20v-168q0 -28 -31 -28h-471q-20 0 -20 -21v-358q0 -19 20 -19h315q31 0 31 -30v-148q0 -29 -31 -29h-315q-20 0 -20 -22v-348q0 -21 20 -21h471q13 0 22 -9t9 -19v-168q0 -29 -31 -29h-715q-28 0 -28 29zM280 1628 q-1 14 11 25l264 213q24 21 49 4l111 -64q14 -7 14 -23t-14 -26l-299 -194q-23 -15 -47 -2l-76 45q-12 7 -13 22z" />
<glyph unicode="&#xca;" horiz-adv-x="948" d="M115 29v1388q0 10 8 20q7 9 20 9h715q13 0 22 -9t9 -20v-168q0 -28 -31 -28h-471q-20 0 -20 -21v-358q0 -19 20 -19h315q31 0 31 -30v-148q0 -29 -31 -29h-315q-20 0 -20 -22v-348q0 -21 20 -21h471q13 0 22 -9t9 -19v-168q0 -29 -31 -29h-715q-28 0 -28 29zM214 1641 q-2 16 9 22l271 192q7 5 16 5t16 -5l271 -192q11 -6 9 -22t-11 -23l-70 -43q-15 -11 -33 0l-170 104q-6 2 -12 2t-12 -2l-170 -104q-18 -11 -33 0l-70 43q-9 7 -11 23z" />
<glyph unicode="&#xcb;" horiz-adv-x="948" d="M115 29v1388q0 10 8 20q7 9 20 9h715q13 0 22 -9t9 -20v-168q0 -28 -31 -28h-471q-20 0 -20 -21v-358q0 -19 20 -19h315q31 0 31 -30v-148q0 -29 -31 -29h-315q-20 0 -20 -22v-348q0 -21 20 -21h471q13 0 22 -9t9 -19v-168q0 -29 -31 -29h-715q-28 0 -28 29zM219 1714 q0 47 32 79t79 32q45 0 77 -32q31 -31 31 -79t-31 -79t-77 -31q-48 0 -79 31q-32 32 -32 79zM575 1714q0 47 32 79t79 32q45 0 77 -32t32 -79t-32 -79q-31 -31 -77 -31q-48 0 -79 31q-32 32 -32 79z" />
<glyph unicode="&#xcc;" horiz-adv-x="436" d="M-3 1782q2 17 15 24l109 64q27 14 49 -4l264 -213q12 -11 11 -25q-1 -15 -13 -22l-74 -45q-26 -10 -49 2l-299 194q-15 7 -13 25zM96 29v1388q0 10 8 20q7 9 21 9h194q11 0 20 -9t9 -20v-1388q0 -13 -9 -21q-10 -8 -20 -8h-194q-29 0 -29 29z" />
<glyph unicode="&#xcd;" horiz-adv-x="436" d="M-3 1628q-1 14 11 25l264 213q25 21 50 4l110 -64q14 -7 14 -23t-14 -26l-299 -194q-23 -15 -47 -2l-76 45q-12 7 -13 22zM96 29v1388q0 10 8 20q7 9 21 9h194q11 0 20 -9t9 -20v-1388q0 -13 -9 -21q-10 -8 -20 -8h-194q-29 0 -29 29z" />
<glyph unicode="&#xce;" horiz-adv-x="436" d="M-75 1641q-2 16 9 22l271 192q7 5 16 5q10 0 17 -5l270 -192q11 -6 9 -22t-11 -23l-70 -43q-15 -11 -33 0l-170 104q-6 2 -12 2t-12 -2l-170 -104q-18 -11 -33 0l-69 43q-10 7 -12 23zM96 29v1388q0 10 8 20q7 9 21 9h194q11 0 20 -9t9 -20v-1388q0 -13 -9 -21 q-10 -8 -20 -8h-194q-29 0 -29 29z" />
<glyph unicode="&#xcf;" horiz-adv-x="436" d="M-70 1714q0 48 33 79q34 32 78 32q45 0 77 -32t32 -79t-32 -79q-31 -31 -77 -31t-78 31q-33 31 -33 79zM94 29v1388q0 10 8 20q8 9 21 9h194q11 0 20 -9t9 -20v-1388q0 -13 -9 -21q-10 -8 -20 -8h-194q-29 0 -29 29zM287 1714q0 48 32 79q34 32 78 32q45 0 77 -32t32 -79 t-32 -79q-31 -31 -77 -31t-78 31t-32 79z" />
<glyph unicode="&#xd0;" horiz-adv-x="1140" d="M4 672v88q0 31 31 31h59q21 0 21 20v606q0 10 8 20q7 9 20 9h394q239 0 381 -134q141 -134 141 -372v-436q0 -234 -146 -369q-145 -135 -372 -135h-398q-28 0 -28 29v594q0 20 -21 20h-59q-31 0 -31 29zM367 246q0 -21 20 -21h150q122 0 194 74q72 73 72 205v436 q0 130 -73 206q-72 75 -198 75h-145q-20 0 -20 -21v-389q0 -20 20 -20h59q12 0 22 -10q9 -9 9 -21v-88q0 -11 -9 -20t-22 -9h-59q-20 0 -20 -20v-377z" />
<glyph unicode="&#xd1;" horiz-adv-x="1214" d="M115 29v1388q0 10 8 20q7 9 20 9h27q20 0 27 -12l626 -791q7 -8 16 -5t9 13v766q0 10 8 20q8 9 21 9h192q31 0 31 -29v-1388q0 -29 -31 -29h-29q-20 0 -30 14l-617 791q-4 6 -10 7t-11 -4t-5 -11v-768q0 -29 -29 -29h-195q-28 0 -28 29zM317 1710q-12 16 5 33 q68 80 176 80q75 0 143 -41q59 -31 96 -31q56 0 105 37q21 16 39 -8l45 -72q12 -21 -4 -35q-74 -84 -185 -84q-69 0 -143 41q-54 31 -96 31q-47 0 -97 -35q-21 -15 -39 10z" />
<glyph unicode="&#xd2;" horiz-adv-x="1210" d="M82 508v432q0 238 144 380q143 142 380 142q235 0 378 -142q144 -143 144 -380v-432q0 -237 -144 -381q-143 -143 -378 -143q-237 0 -380 143q-144 144 -144 381zM338 508q0 -138 73 -216q72 -77 195 -77t195 77q71 75 71 216v432q0 138 -71 213q-72 76 -195 76t-195 -76 q-73 -78 -73 -213v-432zM386 1782q2 17 15 24l109 64q26 14 49 -4l264 -213q13 -12 12 -25q-1 -14 -14 -22l-73 -45q-27 -10 -50 2l-299 194q-15 7 -13 25z" />
<glyph unicode="&#xd3;" horiz-adv-x="1210" d="M82 508v432q0 238 144 380q143 142 380 142q235 0 378 -142q144 -143 144 -380v-432q0 -237 -144 -381q-143 -143 -378 -143q-237 0 -380 143q-144 144 -144 381zM338 508q0 -138 73 -216q72 -77 195 -77t195 77q71 75 71 216v432q0 138 -71 213q-72 76 -195 76t-195 -76 q-73 -78 -73 -213v-432zM378 1628q-1 14 11 25l264 213q24 21 49 4l111 -64q14 -7 14 -23t-14 -26l-299 -194q-23 -15 -47 -2l-76 45q-12 7 -13 22z" />
<glyph unicode="&#xd4;" horiz-adv-x="1210" d="M82 508v432q0 238 144 380q143 142 380 142q235 0 378 -142q144 -143 144 -380v-432q0 -237 -144 -381q-143 -143 -378 -143q-237 0 -380 143q-144 144 -144 381zM310 1641q-2 16 9 22l271 192q7 5 16 5q10 0 17 -5l270 -192q11 -6 9 -22t-11 -23l-70 -43q-15 -11 -33 0 l-170 104q-6 2 -12 2t-12 -2l-170 -104q-18 -11 -33 0l-69 43q-10 7 -12 23zM338 508q0 -138 73 -216q72 -77 195 -77t195 77q71 75 71 216v432q0 138 -71 213q-72 76 -195 76t-195 -76q-73 -78 -73 -213v-432z" />
<glyph unicode="&#xd5;" horiz-adv-x="1210" d="M82 508v432q0 238 144 380q143 142 380 142q235 0 378 -142q144 -143 144 -380v-432q0 -237 -144 -381q-143 -143 -378 -143q-237 0 -380 143q-144 144 -144 381zM303 1710q-12 17 4 33q68 80 176 80q76 0 144 -41q59 -31 96 -31q55 0 104 37q21 16 39 -8l45 -72 q12 -21 -4 -35q-74 -84 -184 -84q-69 0 -143 41q-54 31 -97 31q-46 0 -96 -35q-21 -15 -39 10zM338 508q0 -138 73 -216q72 -77 195 -77t195 77q71 75 71 216v432q0 138 -71 213q-72 76 -195 76t-195 -76q-73 -78 -73 -213v-432z" />
<glyph unicode="&#xd6;" horiz-adv-x="1210" d="M82 508v432q0 238 144 380q143 142 380 142q235 0 378 -142q144 -143 144 -380v-432q0 -237 -144 -381q-143 -143 -378 -143q-237 0 -380 143q-144 144 -144 381zM319 1714q0 48 33 79q34 32 78 32q45 0 77 -32t32 -79t-32 -79q-31 -31 -77 -31t-78 31q-33 32 -33 79z M338 508q0 -138 73 -216q72 -77 195 -77t195 77q71 75 71 216v432q0 138 -71 213q-72 76 -195 76t-195 -76q-73 -78 -73 -213v-432zM676 1714q0 48 33 79q34 32 77 32q45 0 77 -32t32 -79t-32 -79q-31 -31 -77 -31q-45 0 -77 31q-33 32 -33 79z" />
<glyph unicode="&#xd7;" horiz-adv-x="980" d="M78 1069l86 86q23 18 43 -2l287 -289q18 -10 30 2l287 287q22 18 43 0l86 -86q18 -23 0 -41l-287 -287q-16 -16 -2 -30l287 -287q20 -20 0 -41l-84 -86q-22 -18 -45 0l-285 287q-12 12 -30 0l-285 -287q-23 -18 -45 0l-84 84q-21 22 0 43l287 287q16 12 0 28l-287 289 q-20 20 -2 43z" />
<glyph unicode="&#xd8;" horiz-adv-x="1210" d="M82 508v432q0 238 144 380q143 142 380 142q109 0 205 -35l37 93q12 28 43 28h78q16 0 25 -12t3 -27l-61 -149q192 -144 192 -420v-432q0 -237 -144 -381q-143 -143 -378 -143q-113 0 -211 34l-37 -92q-12 -28 -41 -28h-79q-17 0 -26 12t-3 27l61 151q-188 143 -188 420z M338 508q0 -97 35 -164l348 862q-52 23 -115 23q-123 0 -195 -76q-73 -78 -73 -213v-432zM485 240q53 -25 121 -25q123 0 195 77q71 75 71 216v432q0 96 -38 166z" />
<glyph unicode="&#xd9;" horiz-adv-x="1173" d="M109 461v956q0 10 8 20q8 9 20 9h195q12 0 20 -9q8 -10 8 -20v-956q0 -118 59 -182t167 -64q107 0 168 64q59 62 59 182v956q0 11 9 20t20 9h194q14 0 21 -9q8 -10 8 -20v-956q0 -219 -131 -348q-130 -129 -348 -129q-216 0 -346 129q-131 129 -131 348zM366 1782 q2 17 15 24l108 64q27 15 50 -4l264 -213q12 -11 11 -25q-1 -15 -13 -22l-74 -45q-26 -10 -49 2l-299 194q-15 7 -13 25z" />
<glyph unicode="&#xda;" horiz-adv-x="1173" d="M109 461v956q0 10 8 20q8 9 20 9h195q12 0 20 -9q8 -10 8 -20v-956q0 -118 59 -182t167 -64q107 0 168 64q59 62 59 182v956q0 11 9 20t20 9h194q14 0 21 -9q8 -10 8 -20v-956q0 -219 -131 -348q-130 -129 -348 -129q-216 0 -346 129q-131 129 -131 348zM361 1628 q-1 13 12 25l264 213q24 21 49 4l111 -64q14 -7 14 -23t-14 -26l-299 -194q-23 -15 -47 -2l-76 45q-13 8 -14 22z" />
<glyph unicode="&#xdb;" horiz-adv-x="1173" d="M109 461v956q0 10 8 20q8 9 20 9h195q12 0 20 -9q8 -10 8 -20v-956q0 -118 59 -182t167 -64q107 0 168 64q59 62 59 182v956q0 11 9 20t20 9h194q14 0 21 -9q8 -10 8 -20v-956q0 -219 -131 -348q-130 -129 -348 -129q-216 0 -346 129q-131 129 -131 348zM292 1641 q-2 16 9 22l270 192q7 5 17 5q9 0 16 -5l270 -192q12 -7 10 -22q-2 -16 -12 -23l-69 -43q-15 -11 -33 0l-170 104q-6 2 -12 2q-7 0 -13 -2l-169 -104q-18 -11 -33 0l-70 43q-9 7 -11 23z" />
<glyph unicode="&#xdc;" horiz-adv-x="1173" d="M109 461v956q0 10 8 20q8 9 20 9h195q12 0 20 -9q8 -10 8 -20v-956q0 -118 59 -182t167 -64q107 0 168 64q59 62 59 182v956q0 11 9 20t20 9h194q14 0 21 -9q8 -10 8 -20v-956q0 -219 -131 -348q-130 -129 -348 -129q-216 0 -346 129q-131 129 -131 348zM301 1714 q0 47 32 79t79 32q44 0 76 -32t32 -79t-32 -79q-31 -31 -76 -31q-48 0 -79 31q-32 32 -32 79zM657 1714q0 47 32 79t79 32q45 0 77 -32t32 -79t-32 -79q-31 -31 -77 -31q-48 0 -79 31q-32 32 -32 79z" />
<glyph unicode="&#xdd;" horiz-adv-x="1110" d="M25 1407q-6 15 2 27t22 12h197q26 0 37 -25l260 -626q2 -9 12 -9h2q10 0 12 9l262 626q11 25 37 25h203q15 0 23 -12t2 -27l-402 -920q-12 -28 -12 -55v-395q0 -17 -10 -27t-27 -10h-178q-15 0 -26 10t-11 27v395q0 34 -10 55zM333 1628q-1 14 11 25l264 213q24 21 49 4 l111 -64q14 -7 14 -23t-14 -26l-299 -194q-23 -15 -47 -2l-76 45q-12 7 -13 22z" />
<glyph unicode="&#xde;" horiz-adv-x="1058" d="M115 29v1388q0 29 28 29h193q29 0 29 -29v-194q0 -23 22 -23h246q158 0 266 -113q109 -114 109 -276v-121q0 -175 -112 -287q-110 -110 -271 -110h-238q-22 0 -22 -21v-243q0 -29 -29 -29h-193q-28 0 -28 29zM365 520q0 -20 22 -20h174q79 0 125 49q47 50 47 127v121 q0 83 -48 129q-49 47 -134 47h-164q-22 0 -22 -21v-432z" />
<glyph unicode="&#xdf;" horiz-adv-x="1015" d="M92 29v1063q0 148 109 243t278 95h29q168 0 275 -93q106 -92 106 -239v-94q0 -124 -109 -213q-21 -17 0 -29q170 -86 170 -262v-142q0 -155 -105 -257q-104 -101 -267 -101h-99q-28 0 -28 29v139q0 29 28 29h45q74 0 116 43q42 44 42 112v148q0 64 -39 104 q-39 41 -113 41h-51q-28 0 -28 29v123q0 28 28 28h23q58 0 96 36q37 36 37 100v112q0 65 -36 102t-97 37h-21q-62 0 -99 -40q-38 -41 -38 -101v-1042q0 -29 -29 -29h-194q-29 0 -29 29z" />
<glyph unicode="&#xe0;" d="M66 377v258q0 178 95 285q94 106 242 106q134 0 230 -90q6 -6 12 -4t8 8l13 51q6 23 30 23h160q29 0 29 -29v-956q0 -29 -29 -29h-192q-29 0 -29 29v39q0 10 -7 13q-8 3 -16 -5q-88 -88 -213 -88q-151 0 -242 104t-91 285zM282 1350q2 17 15 24l109 64q26 14 49 -4 l264 -213q12 -11 11 -25q-1 -15 -13 -22l-74 -46q-26 -10 -49 2l-299 195q-15 7 -13 25zM309 385q0 -88 45 -139t123 -51q72 0 131 49q27 21 27 55v412q0 36 -27 57q-61 49 -133 49q-76 0 -121 -50q-45 -49 -45 -138v-244z" />
<glyph unicode="&#xe1;" d="M66 377v258q0 178 95 285q94 106 242 106q134 0 230 -90q6 -6 12 -4t8 8l13 51q6 23 30 23h160q29 0 29 -29v-956q0 -29 -29 -29h-192q-29 0 -29 29v39q0 10 -7 13q-8 3 -16 -5q-88 -88 -213 -88q-151 0 -242 104t-91 285zM298 1196q-1 14 11 25l264 213q25 21 50 4 l110 -64q15 -8 15 -23t-15 -26l-299 -195q-23 -15 -47 -2l-76 46q-12 7 -13 22zM309 385q0 -88 45 -139t123 -51q72 0 131 49q27 21 27 55v412q0 36 -27 57q-61 49 -133 49q-76 0 -121 -50q-45 -49 -45 -138v-244z" />
<glyph unicode="&#xe2;" d="M66 377v258q0 178 95 285q94 106 242 106q134 0 230 -90q6 -6 12 -4t8 8l13 51q6 23 30 23h160q29 0 29 -29v-956q0 -29 -29 -29h-192q-29 0 -29 29v39q0 10 -7 13q-8 3 -16 -5q-88 -88 -213 -88q-151 0 -242 104t-91 285zM216 1209q-2 16 9 22l271 192q5 4 16 4t16 -4 l271 -192q11 -6 9 -22t-11 -23l-70 -43q-15 -11 -33 0l-170 104q-6 2 -12 2t-12 -2l-170 -104q-18 -11 -33 0l-70 43q-9 7 -11 23zM309 385q0 -88 45 -139t123 -51q72 0 131 49q27 21 27 55v412q0 36 -27 57q-61 49 -133 49q-76 0 -121 -50q-45 -49 -45 -138v-244z" />
<glyph unicode="&#xe3;" d="M66 377v258q0 178 95 285q94 106 242 106q134 0 230 -90q6 -6 12 -4t8 8l13 51q6 23 30 23h160q29 0 29 -29v-956q0 -29 -29 -29h-192q-29 0 -29 29v39q0 10 -7 13q-8 3 -16 -5q-88 -88 -213 -88q-151 0 -242 104t-91 285zM213 1278q-12 17 4 33q68 80 176 80 q76 0 144 -41q59 -31 96 -31q55 0 104 37q21 16 39 -8l45 -72q12 -21 -4 -35q-73 -84 -184 -84q-70 0 -144 41q-54 31 -96 31q-46 0 -96 -35q-21 -15 -39 10zM309 385q0 -88 45 -139t123 -51q72 0 131 49q27 21 27 55v412q0 36 -27 57q-61 49 -133 49q-76 0 -121 -50 q-45 -49 -45 -138v-244z" />
<glyph unicode="&#xe4;" d="M66 377v258q0 178 95 285q94 106 242 106q134 0 230 -90q6 -6 12 -4t8 8l13 51q6 23 30 23h160q29 0 29 -29v-956q0 -29 -29 -29h-192q-29 0 -29 29v39q0 10 -7 13q-8 3 -16 -5q-88 -88 -213 -88q-151 0 -242 104t-91 285zM233 1282q0 45 33 78t78 33t77 -32t32 -79 t-32 -79t-77 -32t-78 33t-33 78zM309 385q0 -88 45 -139t123 -51q72 0 131 49q27 21 27 55v412q0 36 -27 57q-61 49 -133 49q-76 0 -121 -50q-45 -49 -45 -138v-244zM590 1282q0 45 33 78t77 33q45 0 77 -32t32 -79t-32 -79t-77 -32q-44 0 -77 33t-33 78z" />
<glyph unicode="&#xe5;" d="M66 377v258q0 178 95 285q94 106 242 106q134 0 230 -90q6 -6 12 -4t8 8l13 51q6 23 30 23h160q29 0 29 -29v-956q0 -29 -29 -29h-192q-29 0 -29 29v39q0 10 -7 13q-8 3 -16 -5q-88 -88 -213 -88q-151 0 -242 104t-91 285zM309 385q0 -88 45 -139t123 -51q72 0 131 49 q27 21 27 55v412q0 36 -27 57q-61 49 -133 49q-76 0 -121 -50q-45 -49 -45 -138v-244zM340 1282q0 78 52 127t130 49t130 -49q53 -50 53 -127t-53 -127q-52 -49 -130 -49t-130 49t-52 127zM438 1282q0 -86 84 -86t84 86t-84 86t-84 -86z" />
<glyph unicode="&#xe6;" horiz-adv-x="1454" d="M53 270v43q0 137 93 211q94 74 247 74h162q23 0 23 23v81q0 54 -37 84q-39 31 -101 31q-102 0 -184 -61q-24 -17 -41 8l-82 129q-15 26 6 41q139 96 324 96q151 0 250 -69q15 -10 32 0q101 69 242 69q181 0 295 -108q115 -109 115 -287v-170q0 -13 -9 -22t-22 -9h-518 q-21 0 -21 -20v-35q0 -88 51 -139q50 -50 144 -50q75 0 133 46q21 16 41 2l131 -101q26 -22 2 -45q-121 -108 -307 -108q-93 0 -174 26q-19 6 -31 -4q-11 -6 -18 -6h-162q-23 0 -29 20l-14 56q-2 8 -9 8q-8 0 -12 -4q-97 -92 -231 -92q-136 0 -213 78q-76 77 -76 204z M299 301q0 -106 119 -106q84 0 135 51q25 25 25 55v111q0 22 -23 22h-117q-139 0 -139 -110v-23zM827 618q0 -22 21 -22h282q21 0 21 22v19q0 90 -42 138t-118 48q-164 0 -164 -186v-19z" />
<glyph unicode="&#xe7;" horiz-adv-x="753" d="M66 373v264q0 169 117 282t298 113q127 0 226 -59q27 -17 12 -41l-68 -131q-15 -28 -39 -13q-53 35 -125 35q-80 0 -128 -53q-48 -52 -48 -135v-258q0 -81 48 -134t128 -53q61 0 125 35q27 15 39 -14l66 -131q11 -27 -12 -39q-93 -54 -209 -59l-33 -58q-12 -22 14 -26 q95 -6 153 -56q56 -49 56 -131v-28q0 -94 -73 -152q-72 -57 -189 -57q-76 0 -160 41q-24 15 -12 41l20 45q12 23 41 12q52 -23 101 -23q137 0 137 97v20q0 38 -34 62q-35 24 -97 24q-52 0 -107 -24q-16 -10 -28 6l-9 12q-10 14 -2 27l107 178q-143 28 -229 135t-86 246z" />
<glyph unicode="&#xe8;" horiz-adv-x="944" d="M66 379v256q0 177 114 286q113 109 291 109q181 0 295 -108q115 -109 115 -287v-170q0 -12 -10 -22q-9 -9 -21 -9h-518q-21 0 -21 -20v-35q0 -89 50 -139t145 -50q75 0 133 46q21 16 41 2l131 -101q26 -22 2 -45q-121 -108 -307 -108q-198 0 -319 109t-121 286zM284 1350 q2 17 15 24l109 64q26 14 49 -4l264 -213q12 -11 11 -25q-1 -15 -13 -22l-74 -46q-26 -10 -49 2l-299 195q-15 7 -13 25zM311 618q0 -22 21 -22h282q21 0 21 22v19q0 90 -42 138t-118 48q-164 0 -164 -186v-19z" />
<glyph unicode="&#xe9;" horiz-adv-x="944" d="M66 379v256q0 177 114 286q113 109 291 109q181 0 295 -108q115 -109 115 -287v-170q0 -12 -10 -22q-9 -9 -21 -9h-518q-21 0 -21 -20v-35q0 -89 50 -139t145 -50q75 0 133 46q21 16 41 2l131 -101q26 -22 2 -45q-121 -108 -307 -108q-198 0 -319 109t-121 286zM265 1196 q-1 14 11 25l265 213q24 21 49 4l110 -64q15 -8 15 -23t-15 -26l-299 -195q-23 -15 -47 -2l-75 46q-13 8 -14 22zM311 618q0 -22 21 -22h282q21 0 21 22v19q0 90 -42 138t-118 48q-164 0 -164 -186v-19z" />
<glyph unicode="&#xea;" horiz-adv-x="944" d="M66 379v256q0 177 114 286q113 109 291 109q181 0 295 -108q115 -109 115 -287v-170q0 -12 -10 -22q-9 -9 -21 -9h-518q-21 0 -21 -20v-35q0 -89 50 -139t145 -50q75 0 133 46q21 16 41 2l131 -101q26 -22 2 -45q-121 -108 -307 -108q-198 0 -319 109t-121 286zM196 1209 q-2 16 9 22l270 192q5 4 17 4q11 0 16 -4l270 -192q11 -6 9 -22t-11 -23l-69 -43q-15 -11 -33 0l-170 104q-6 2 -12 2q-7 0 -13 -2l-170 -104q-18 -11 -33 0l-69 43q-9 7 -11 23zM311 618q0 -22 21 -22h282q21 0 21 22v19q0 90 -42 138t-118 48q-164 0 -164 -186v-19z" />
<glyph unicode="&#xeb;" horiz-adv-x="944" d="M66 379v256q0 177 114 286q113 109 291 109q181 0 295 -108q115 -109 115 -287v-170q0 -12 -10 -22q-9 -9 -21 -9h-518q-21 0 -21 -20v-35q0 -89 50 -139t145 -50q75 0 133 46q21 16 41 2l131 -101q26 -22 2 -45q-121 -108 -307 -108q-198 0 -319 109t-121 286zM203 1282 q0 46 31 78q31 33 79 33q45 0 77 -32t32 -79t-32 -79t-77 -32q-47 0 -79 33q-31 32 -31 78zM311 618q0 -22 21 -22h282q21 0 21 22v19q0 90 -42 138t-118 48q-164 0 -164 -186v-19zM559 1282q0 44 32 78q31 33 79 33q44 0 76 -32t32 -79t-32 -79t-76 -32q-48 0 -79 33 q-32 34 -32 78z" />
<glyph unicode="&#xec;" horiz-adv-x="436" d="M-5 1350q2 17 15 24l109 64q26 14 49 -4l264 -213q12 -11 11 -25q-1 -15 -13 -22l-74 -46q-26 -10 -49 2l-299 195q-15 7 -13 25zM94 29v956q0 14 9 21q10 8 20 8h192q31 0 31 -29v-956q0 -29 -31 -29h-190q-31 0 -31 29z" />
<glyph unicode="&#xed;" horiz-adv-x="436" d="M-5 1196q-1 14 11 25l264 213q24 21 49 4l111 -64q14 -7 14 -23t-14 -26l-299 -195q-23 -15 -47 -2l-76 46q-12 7 -13 22zM94 29v956q0 14 9 21q10 8 20 8h192q31 0 31 -29v-956q0 -29 -31 -29h-190q-31 0 -31 29z" />
<glyph unicode="&#xee;" horiz-adv-x="436" d="M-75 1209q-2 16 9 22l271 192q5 4 16 4q12 0 17 -4l270 -192q11 -6 9 -22t-11 -23l-70 -43q-15 -11 -33 0l-170 104q-6 2 -12 2t-12 -2l-170 -104q-18 -11 -33 0l-69 43q-10 7 -12 23zM96 29v956q0 14 9 21q10 8 20 8h192q31 0 31 -29v-956q0 -29 -31 -29h-190 q-31 0 -31 29z" />
<glyph unicode="&#xef;" horiz-adv-x="436" d="M-70 1282q0 45 33 78t78 33t77 -32t32 -79t-32 -79t-77 -32t-78 33t-33 78zM92 29v956q0 14 9 21q10 8 20 8h192q31 0 31 -29v-956q0 -29 -31 -29h-190q-31 0 -31 29zM287 1282q0 46 32 78q33 33 78 33t77 -32t32 -79t-32 -79t-77 -32t-78 33q-32 32 -32 78z" />
<glyph unicode="&#xf0;" d="M66 381v256q0 187 105 290q104 103 257 103q113 0 186 -61q6 -2 9 -2q4 0 7 3t1 9q-29 90 -99 170q-18 18 -40 6l-101 -47q-30 -11 -41 14l-37 78q-15 28 15 41l45 23q19 8 2 20q-32 23 -99 59q-11 6 -16 21q-4 15 6 27l86 112q18 21 43 10q111 -62 193 -129 q18 -15 41 -4l94 45q27 15 39 -14l39 -80q10 -23 -15 -39l-55 -24q-18 -10 -6 -27q95 -122 141 -254q47 -135 47 -348v-258q0 -173 -119 -285t-305 -112q-182 0 -303 112q-120 111 -120 285zM311 381q0 -89 48 -138q48 -50 130 -50q83 0 131 50q48 49 48 138v256 q0 87 -48 136q-48 50 -131 50q-82 0 -130 -50q-48 -49 -48 -136v-256z" />
<glyph unicode="&#xf1;" horiz-adv-x="970" d="M92 29v956q0 29 31 29h162q22 0 28 -19l13 -55q2 -7 9 -8q7 -2 13 4q102 90 236 90q143 0 222 -91t79 -261v-645q0 -29 -29 -29h-192q-29 0 -29 29v639q0 141 -133 141q-80 0 -133 -47q-25 -22 -25 -53v-680q0 -29 -29 -29h-192q-31 0 -31 29zM201 1278q-12 17 4 33 q68 80 176 80q75 0 143 -41q59 -31 97 -31q55 0 104 37q21 16 39 -8l45 -72q12 -21 -4 -35q-73 -84 -184 -84q-70 0 -144 41q-54 31 -96 31q-46 0 -96 -35q-21 -15 -39 10z" />
<glyph unicode="&#xf2;" horiz-adv-x="974" d="M66 377v260q0 173 119 283t302 110q184 0 304 -110t120 -283v-260q0 -172 -120 -282q-121 -111 -304 -111q-182 0 -302 111q-119 110 -119 282zM265 1350q2 17 16 24l108 64q27 14 49 -4l264 -213q13 -12 12 -25q-1 -14 -14 -22l-73 -46q-26 -10 -49 2l-299 195 q-16 8 -14 25zM311 377q0 -86 47 -136q48 -51 129 -51t130 51t49 136v260q0 85 -49 136q-48 50 -130 50t-129 -50t-47 -136v-260z" />
<glyph unicode="&#xf3;" horiz-adv-x="974" d="M66 377v260q0 173 119 283t302 110q184 0 304 -110t120 -283v-260q0 -172 -120 -282q-121 -111 -304 -111q-182 0 -302 111q-119 110 -119 282zM261 1196q-1 14 11 25l265 213q24 21 49 4l110 -64q15 -8 15 -23t-15 -26l-299 -195q-23 -15 -47 -2l-76 46q-12 7 -13 22z M311 377q0 -86 47 -136q48 -51 129 -51t130 51t49 136v260q0 85 -49 136q-48 50 -130 50t-129 -50t-47 -136v-260z" />
<glyph unicode="&#xf4;" horiz-adv-x="974" d="M66 377v260q0 173 119 283t302 110q184 0 304 -110t120 -283v-260q0 -172 -120 -282q-121 -111 -304 -111q-182 0 -302 111q-119 110 -119 282zM191 1209q-2 15 10 22l270 192q5 4 16 4q12 0 17 -4l270 -192q11 -6 9 -22t-11 -23l-70 -43q-15 -10 -32 0l-170 104 q-6 2 -13 2q-6 0 -12 -2l-170 -104q-18 -11 -33 0l-69 43q-10 7 -12 23zM311 377q0 -86 47 -136q48 -51 129 -51t130 51t49 136v260q0 85 -49 136q-48 50 -130 50t-129 -50t-47 -136v-260z" />
<glyph unicode="&#xf5;" horiz-adv-x="974" d="M66 377v260q0 173 119 283t302 110q184 0 304 -110t120 -283v-260q0 -172 -120 -282q-121 -111 -304 -111q-182 0 -302 111q-119 110 -119 282zM184 1278q-12 17 4 33q68 80 177 80q75 0 143 -41q59 -31 96 -31q56 0 105 37q21 16 39 -8l45 -72q11 -20 -5 -35 q-74 -84 -184 -84q-69 0 -143 41q-54 31 -96 31q-47 0 -97 -35q-21 -15 -39 10zM311 377q0 -86 47 -136q48 -51 129 -51t130 51t49 136v260q0 85 -49 136q-48 50 -130 50t-129 -50t-47 -136v-260z" />
<glyph unicode="&#xf6;" horiz-adv-x="974" d="M66 377v260q0 173 119 283t302 110q184 0 304 -110t120 -283v-260q0 -172 -120 -282q-121 -111 -304 -111q-182 0 -302 111q-119 110 -119 282zM201 1282q0 46 32 78q33 33 78 33t77 -32t32 -79t-32 -79t-77 -32t-78 33q-32 32 -32 78zM311 377q0 -86 47 -136 q48 -51 129 -51t130 51t49 136v260q0 85 -49 136q-48 50 -130 50t-129 -50t-47 -136v-260zM557 1282q0 45 33 78t78 33q44 0 76 -32t32 -79t-32 -79t-76 -32q-45 0 -78 33t-33 78z" />
<glyph unicode="&#xf7;" horiz-adv-x="1173" d="M102 664v120q0 29 31 29h909q11 0 20 -9t9 -20v-122q0 -11 -9 -20t-20 -9h-909q-31 0 -31 31zM467 383q0 49 35 84t86 35q49 0 84 -35t35 -84q0 -51 -35 -86t-84 -35q-51 0 -86 35t-35 86zM467 1061q0 51 35 86t86 35q49 0 84 -35t35 -86q0 -49 -35 -84t-84 -35 q-51 0 -86 35t-35 84z" />
<glyph unicode="&#xf8;" horiz-adv-x="974" d="M66 377v260q0 173 119 283t302 110q81 0 140 -20l32 77q12 29 43 29h78q17 0 26 -12t3 -27l-55 -129q157 -114 157 -311v-260q0 -172 -120 -282q-121 -111 -304 -111q-69 0 -129 16l-30 -74q-12 -28 -43 -28h-78q-20 0 -27 11q-8 12 -2 28l51 122q-163 111 -163 318z M311 377q0 -51 15 -86l219 524q-24 8 -58 8q-82 0 -129 -50t-47 -136v-260zM440 195q32 -5 47 -5q81 0 130 51t49 136v260q0 33 -11 72z" />
<glyph unicode="&#xf9;" horiz-adv-x="962" d="M84 342v643q0 29 31 29h192q29 0 29 -29v-639q0 -141 131 -141q75 0 127 47q24 21 24 53v680q0 13 10 21t19 8h193q30 0 30 -29v-956q0 -29 -30 -29h-162q-21 0 -27 18l-14 56q-2 7 -9 8q-8 2 -12 -4q-100 -92 -233 -92q-143 0 -221 92t-78 264zM259 1350q2 17 15 24 l109 64q26 14 49 -4l264 -213q13 -12 12 -25q-1 -14 -14 -22l-73 -46q-27 -10 -50 2l-299 195q-15 7 -13 25z" />
<glyph unicode="&#xfa;" horiz-adv-x="962" d="M84 342v643q0 29 31 29h192q29 0 29 -29v-639q0 -141 131 -141q75 0 127 47q24 21 24 53v680q0 13 10 21t19 8h193q30 0 30 -29v-956q0 -29 -30 -29h-162q-21 0 -27 18l-14 56q-2 7 -9 8q-8 2 -12 -4q-100 -92 -233 -92q-143 0 -221 92t-78 264zM257 1196q-1 14 11 25 l264 213q25 21 50 4l110 -64q15 -8 15 -23t-15 -26l-299 -195q-23 -15 -47 -2l-76 46q-12 7 -13 22z" />
<glyph unicode="&#xfb;" horiz-adv-x="962" d="M84 342v643q0 29 31 29h192q29 0 29 -29v-639q0 -141 131 -141q75 0 127 47q24 21 24 53v680q0 13 10 21t19 8h193q30 0 30 -29v-956q0 -29 -30 -29h-162q-21 0 -27 18l-14 56q-2 7 -9 8q-8 2 -12 -4q-100 -92 -233 -92q-143 0 -221 92t-78 264zM187 1209q-2 15 10 22 l270 192q5 4 16 4q12 0 17 -4l270 -192q11 -6 9 -22t-11 -23l-70 -43q-15 -10 -32 0l-170 104q-6 2 -13 2q-6 0 -12 -2l-170 -104q-18 -11 -33 0l-69 43q-10 7 -12 23z" />
<glyph unicode="&#xfc;" horiz-adv-x="962" d="M84 342v643q0 29 31 29h192q29 0 29 -29v-639q0 -141 131 -141q75 0 127 47q24 21 24 53v680q0 13 10 21t19 8h193q30 0 30 -29v-956q0 -29 -30 -29h-162q-21 0 -27 18l-14 56q-2 7 -9 8q-8 2 -12 -4q-100 -92 -233 -92q-143 0 -221 92t-78 264zM195 1282q0 46 31 78 q32 33 79 33q45 0 77 -32t32 -79t-32 -79t-77 -32q-47 0 -79 33q-31 32 -31 78zM551 1282q0 44 32 78q31 33 78 33q45 0 77 -32t32 -79t-32 -79t-77 -32q-47 0 -78 33q-32 34 -32 78z" />
<glyph unicode="&#xfd;" horiz-adv-x="927" d="M25 977q-5 12 3 24q8 13 21 13h187q24 0 36 -25l187 -581q2 -9 12 -9t12 9l187 581q11 25 35 25h182q14 0 21 -10t3 -25l-465 -1387q-6 -26 -36 -26h-166q-14 0 -21 11q-8 13 -4 26l133 399q8 22 0 45zM239 1196q-1 14 11 25l264 213q24 21 49 4l111 -64q14 -7 14 -23 t-14 -26l-299 -195q-23 -15 -47 -2l-76 46q-12 7 -13 22z" />
<glyph unicode="&#xfe;" horiz-adv-x="980" d="M92 -406v1823q0 29 31 29h192q29 0 29 -29v-463q0 -8 7 -11q8 -3 14 3q88 82 206 82q145 0 244 -106q98 -105 98 -285v-262q0 -183 -96 -286t-244 -103q-122 0 -208 80q-6 6 -14 3q-7 -3 -7 -12v-463q0 -28 -31 -28h-192q-10 0 -20 8q-9 8 -9 20zM344 297q0 -36 27 -57 q58 -47 129 -47q78 0 124 51q46 50 46 139v248q0 89 -46 138q-47 50 -122 50q-73 0 -131 -47q-27 -21 -27 -59v-416z" />
<glyph unicode="&#xff;" horiz-adv-x="927" d="M25 977q-5 12 3 24q8 13 21 13h187q24 0 36 -25l187 -581q2 -9 12 -9t12 9l187 581q11 25 35 25h182q14 0 21 -10t3 -25l-465 -1387q-6 -26 -36 -26h-166q-14 0 -21 11q-8 13 -4 26l133 399q8 22 0 45zM174 1282q0 44 32 78q32 33 79 33q44 0 76 -32t32 -79t-32 -79 t-76 -32q-47 0 -79 33q-32 34 -32 78zM530 1282q0 44 32 78q32 33 79 33q45 0 77 -32t32 -79t-32 -79t-77 -32q-47 0 -79 33q-32 34 -32 78z" />
<glyph unicode="&#x152;" horiz-adv-x="1710" d="M82 508v432q0 234 137 379q136 143 365 143q182 0 288 -106q8 -8 19 -3q10 4 10 15v49q0 10 8 20q7 9 21 9h688q12 0 21 -9q10 -10 10 -20v-168q0 -28 -31 -28h-471q-21 0 -21 -21v-358q0 -19 21 -19h315q31 0 31 -30v-148q0 -29 -31 -29h-315q-21 0 -21 -22v-348 q0 -21 21 -21h471q12 0 21 -9q10 -10 10 -19v-168q0 -29 -31 -29h-688q-29 0 -29 29v49q0 11 -10 15q-11 5 -19 -3q-106 -106 -288 -106q-230 0 -366 143t-136 381zM338 508q0 -138 73 -216q72 -77 195 -77t195 77q71 75 71 216v432q0 138 -71 213q-72 76 -195 76t-195 -76 q-73 -78 -73 -213v-432z" />
<glyph unicode="&#x153;" horiz-adv-x="1538" d="M66 377v260q0 173 119 283t302 110q160 0 281 -94q16 -12 33 0q110 94 270 94q181 0 295 -108q115 -109 115 -287v-170q0 -12 -10 -22q-9 -9 -21 -9h-518q-21 0 -21 -20v-35q0 -88 51 -139q50 -50 144 -50q75 0 133 46q21 16 41 2l131 -101q26 -22 2 -45 q-121 -108 -307 -108q-182 0 -301 96q-18 15 -35 0q-114 -96 -283 -96q-182 0 -302 111q-119 110 -119 282zM311 377q0 -86 47 -136q48 -51 129 -51t130 51t49 136v260q0 85 -49 136q-48 50 -130 50t-129 -50t-47 -136v-260zM911 618q0 -22 21 -22h282q21 0 21 22v19 q0 90 -42 138t-118 48q-164 0 -164 -186v-19z" />
<glyph unicode="&#x178;" horiz-adv-x="1110" d="M25 1407q-6 15 2 27t22 12h197q26 0 37 -25l260 -626q2 -9 12 -9h2q10 0 12 9l262 626q11 25 37 25h203q15 0 23 -12t2 -27l-402 -920q-12 -28 -12 -55v-395q0 -17 -10 -27t-27 -10h-178q-15 0 -26 10t-11 27v395q0 34 -10 55zM268 1714q0 48 33 79q34 32 78 32 q45 0 77 -32q31 -31 31 -79t-31 -79t-77 -31t-78 31q-33 31 -33 79zM625 1714q0 48 32 79q34 32 78 32q45 0 77 -32t32 -79t-32 -79q-31 -31 -77 -31t-78 31t-32 79z" />
<glyph unicode="&#x2c6;" horiz-adv-x="819" d="M114 1209q-2 16 9 22l270 192q5 4 17 4q11 0 16 -4l270 -192q12 -7 10 -22q-2 -16 -12 -23l-69 -43q-15 -11 -33 0l-170 104q-6 2 -12 2q-7 0 -13 -2l-170 -104q-17 -10 -32 0l-70 43q-9 7 -11 23z" />
<glyph unicode="&#x2dc;" horiz-adv-x="819" d="M119 1278q-12 17 4 33q68 80 176 80q75 0 143 -41q59 -31 97 -31q55 0 104 37q21 16 39 -8l45 -72q12 -21 -4 -35q-73 -84 -184 -84q-70 0 -144 41q-54 31 -96 31q-46 0 -96 -35q-21 -15 -39 10z" />
<glyph unicode="&#x2000;" horiz-adv-x="945" />
<glyph unicode="&#x2001;" horiz-adv-x="1890" />
<glyph unicode="&#x2002;" horiz-adv-x="945" />
<glyph unicode="&#x2003;" horiz-adv-x="1890" />
<glyph unicode="&#x2004;" horiz-adv-x="630" />
<glyph unicode="&#x2005;" horiz-adv-x="472" />
<glyph unicode="&#x2006;" horiz-adv-x="315" />
<glyph unicode="&#x2007;" horiz-adv-x="315" />
<glyph unicode="&#x2008;" horiz-adv-x="236" />
<glyph unicode="&#x2009;" horiz-adv-x="378" />
<glyph unicode="&#x200a;" horiz-adv-x="105" />
<glyph unicode="&#x2010;" horiz-adv-x="659" d="M76 444v131q0 11 9 20t19 9h449q12 0 21 -9q10 -10 10 -20v-131q0 -9 -10 -19q-9 -9 -21 -9h-449q-10 0 -19 9t-9 19z" />
<glyph unicode="&#x2011;" horiz-adv-x="659" d="M76 444v131q0 11 9 20t19 9h449q12 0 21 -9q10 -10 10 -20v-131q0 -9 -10 -19q-9 -9 -21 -9h-449q-10 0 -19 9t-9 19z" />
<glyph unicode="&#x2012;" horiz-adv-x="659" d="M76 444v131q0 11 9 20t19 9h449q12 0 21 -9q10 -10 10 -20v-131q0 -9 -10 -19q-9 -9 -21 -9h-449q-10 0 -19 9t-9 19z" />
<glyph unicode="&#x2013;" horiz-adv-x="835" d="M76 444v131q0 11 9 20t19 9h625q13 0 22 -9t9 -20v-131q0 -10 -9 -19t-22 -9h-625q-10 0 -19 9t-9 19z" />
<glyph unicode="&#x2014;" horiz-adv-x="1411" d="M41 444v131q0 11 9 20t20 9h1269q13 0 22 -9t9 -20v-131q0 -10 -9 -19t-22 -9h-1269q-11 0 -20 9t-9 19z" />
<glyph unicode="&#x2018;" horiz-adv-x="393" d="M82 1167q0 75 48 158q48 82 124 148q20 20 47 12l18 -6q30 -13 9 -41q-52 -67 -52 -113q0 -47 25 -78q29 -35 29 -80q0 -51 -36 -87t-89 -36t-88 36q-35 37 -35 87z" />
<glyph unicode="&#x2019;" horiz-adv-x="393" d="M113 1065q51 66 51 113q0 41 -25 77q-26 33 -26 80q0 52 34 86q35 35 89 35t88 -36q34 -35 34 -85q0 -153 -170 -305q-23 -23 -47 -12l-20 6q-26 14 -8 41z" />
<glyph unicode="&#x201a;" horiz-adv-x="409" d="M67 -172q-3 11 5 22q53 73 53 115q0 45 -27 78q-28 38 -28 78q0 52 34 87q34 36 91 36q53 0 88 -36q34 -35 34 -87q0 -75 -48 -158q-47 -81 -122 -145q-24 -21 -49 -13l-18 7q-10 4 -13 16z" />
<glyph unicode="&#x201c;" horiz-adv-x="724" d="M82 1167q0 75 48 158q48 82 124 148q20 20 47 12l18 -6q30 -13 9 -41q-52 -67 -52 -113q0 -47 25 -78q29 -40 29 -80q0 -51 -36 -87t-89 -36t-88 36q-35 37 -35 87zM414 1167q0 154 170 306q23 23 47 12l20 -6q26 -14 8 -41q-51 -66 -51 -113t25 -78q26 -33 26 -80 q0 -52 -34 -87q-35 -36 -88 -36t-88 36q-35 37 -35 87z" />
<glyph unicode="&#x201d;" horiz-adv-x="724" d="M91 1041q-3 13 5 24q51 66 51 113t-24 77q-27 35 -27 80q0 51 35 86t88 35t88 -36q35 -37 35 -85q0 -153 -170 -305q-23 -23 -47 -12l-21 6q-10 4 -13 17zM423 1041q-3 13 5 24q51 66 51 113t-24 77q-29 35 -29 80q0 49 36 85t89 36t88 -36q35 -37 35 -85 q0 -153 -170 -305q-23 -20 -49 -12l-19 6q-10 4 -13 17z" />
<glyph unicode="&#x201e;" horiz-adv-x="743" d="M67 -172q-3 11 5 22q53 73 53 115q0 45 -27 78q-28 38 -28 78q0 52 34 87q34 36 91 36q53 0 88 -36q34 -35 34 -87q0 -75 -48 -158q-47 -81 -122 -145q-24 -21 -49 -13l-18 7q-10 4 -13 16zM398 -172q-3 11 5 22q54 74 54 115t-27 78q-29 40 -29 78q0 50 35 87 q34 36 90 36q53 0 89 -36t36 -87q0 -76 -49 -158q-50 -83 -125 -145q-23 -23 -47 -13l-18 7q-11 5 -14 16z" />
<glyph unicode="&#x2022;" horiz-adv-x="862" d="M139 727q0 123 85 207q86 84 208 84q120 0 206 -84q85 -84 85 -207t-84 -206q-85 -83 -207 -83t-208 83q-85 82 -85 206z" />
<glyph unicode="&#x2026;" horiz-adv-x="1427" d="M84 131q0 59 42 100q43 41 101 41q60 0 101 -41t41 -100q0 -58 -41 -99q-40 -40 -101 -40q-60 0 -101 40q-42 41 -42 99zM571 131q0 59 42 100q43 41 102 41t100 -41t41 -100q0 -58 -41 -99q-40 -40 -100 -40q-61 0 -102 40q-42 41 -42 99zM1059 131q0 59 42 100 q43 41 101 41q60 0 101 -41q40 -40 40 -100q0 -59 -40 -99t-101 -40q-60 0 -101 40q-42 41 -42 99z" />
<glyph unicode="&#x202f;" horiz-adv-x="378" />
<glyph unicode="&#x2039;" horiz-adv-x="538" d="M82 512q0 10 6 20l227 318q10 16 29 16h94q12 0 17 -9q4 -9 -2 -17l-191 -314q-4 -5 -4 -14t4 -14l191 -314q6 -8 2 -17q-5 -9 -17 -9h-94q-19 0 -29 16l-227 318q-6 8 -6 20z" />
<glyph unicode="&#x203a;" horiz-adv-x="538" d="M88 167q-4 9 2 17l191 314q4 5 4 14t-4 14l-191 314q-6 8 -2 17t16 9h97q18 0 28 -16l228 -318q6 -10 6 -20q0 -12 -6 -20l-228 -318q-10 -16 -28 -16h-97q-12 0 -16 9z" />
<glyph unicode="&#x205f;" horiz-adv-x="472" />
<glyph unicode="&#x20ac;" horiz-adv-x="995" d="M10 551v63q0 10 8 20q8 9 21 9h51v160h-51q-13 0 -21 9q-8 10 -8 22v63q0 29 29 29h51v14q0 235 147 379q146 143 379 143q170 0 310 -92q27 -12 10 -41l-92 -143q-18 -27 -41 -10q-85 53 -182 53q-127 0 -201 -78q-74 -79 -74 -211v-14h391q29 0 29 -29v-63 q0 -31 -29 -31h-391v-160h391q13 0 21 -9q8 -10 8 -20v-65q0 -10 -8 -20q-8 -9 -21 -9h-391v-10q0 -138 73 -217q72 -78 202 -78q99 0 184 57q24 15 41 -10l94 -145q15 -22 -10 -41q-137 -92 -309 -92q-238 0 -384 142q-147 142 -147 384v10h-51q-13 0 -21 9q-8 10 -8 22z " />
<glyph unicode="&#x2122;" horiz-adv-x="1699" d="M82 1290v135q0 21 20 21h574q18 0 18 -21v-135q0 -20 -18 -20h-174q-13 0 -13 -15v-600q0 -20 -20 -20h-162q-18 0 -18 20v600q0 15 -15 15h-172q-20 0 -20 20zM733 657l107 773q4 16 20 16h62q14 0 18 -10l211 -367q5 -6 6 -6t6 6l211 367q6 10 19 10h61q15 0 19 -16 l110 -773q4 -22 -20 -22h-154q-14 0 -18 16l-58 398q-1 5 -8 7q-6 2 -8 -3l-143 -244q-6 -10 -17 -10q-12 0 -18 10l-142 244q-12 12 -16 -4l-55 -398q-4 -16 -21 -16h-151q-9 0 -16 7t-5 15z" />
<glyph unicode="&#x25fc;" horiz-adv-x="1013" d="M0 0v1014h1014v-1014h-1014z" />
</font>
</defs>
</svg>
